Actualmente tenemos 2971 peliculas en nuestro sitio.

21 la gran fiesta (2013) 1080p Latino-Ingles

21 and Over (21 & Over)

Ficha

Titulo Original: 21 and Over (21 & Over)

1080p | 1920x800 | MKV | H.264 | Encoder by: CinemaniaHD | 1.8 GB |1:33:6 min | Audio: Español Latino (AC3 2.0 DVD) - Ingles (AC3 5.1 BD)  | Subtitulos: Español Latino -Ingles + Aparte | Comedia | 2013 | 5% Registro de Recuperacion (Reparar Rar dañados)

MediaInfo:

[spoiler]

General

Format : Matroska
Format version : Version 4 / Version 2
File size : 1.81 GiB
Duration : 1h 33mn
Overall bit rate : 2 783 Kbps
Movie name : 21 la gran fiesta (2013) [1080p Dual] CinemaniaHD
Encoded date : UTC 2013-11-23 01:16:55
Writing application : mkvmerge v6.0.0 ('Coming Up For Air') built on Jan 20 2013 09:52:00
Writing library : libebml v1.3.0 + libmatroska v1.4.0

Video
ID : 1
Format : AVC
Format/Info : Advanced Video Codec
Format profile : [email protected]
Format settings, CABAC : Yes
Format settings, ReFrames : 4 frames
Codec ID : V_MPEG4/ISO/AVC
Duration : 1h 33mn
Bit rate : 2 279 Kbps
Nominal bit rate : 2 400 Kbps
Width : 1 920 pixels
Height : 800 pixels
Display aspect ratio : 2.40:1
Frame rate mode : Constant
Frame rate : 23.976 fps
Color space : YUV
Chroma subsampling : 4:2:0
Bit depth : 8 bits
Scan type : Progressive
Bits/(Pixel*Frame) : 0.062
Stream size : 1.48 GiB (82%)
Title : WwW.CinemaniaHD.org
Writing library : x264 core 130 r2273 b3065e6
Encoding settings : cabac=1 / ref=1 / deblock=1:0:0 / analyse=0x1:0x111 / me=hex / subme=2 / psy=1 / psy_rd=1.00:0.00 / mixed_ref=0 / me_range=16 / chroma_me=1 / trellis=0 / 8x8dct=0 / cqm=0 / deadzone=21,11 / fast_pskip=1 / chroma_qp_offset=0 / threads=12 / lookahead_threads=4 / sliced_threads=0 / nr=0 / decimate=1 / interlaced=0 / bluray_compat=0 / constrained_intra=0 / bframes=3 / b_pyramid=2 / b_adapt=1 / b_bias=0 / direct=1 / weightb=1 / open_gop=0 / weightp=1 / keyint=240 / keyint_min=24 / scenecut=40 / intra_refresh=0 / rc_lookahead=10 / rc=abr / mbtree=1 / bitrate=2400 / ratetol=1.0 / qcomp=0.60 / qpmin=0 / qpmax=69 / qpstep=4 / vbv_maxrate=20000 / vbv_bufsize=25000 / nal_hrd=none / ip_ratio=1.40 / aq=1:1.00
Default : Yes
Forced : No
Color primaries : BT.709
Transfer characteristics : BT.709
Matrix coefficients : BT.709

Audio #1
ID : 2
Format : AC-3
Format/Info : Audio Coding 3
Mode extension : CM (complete main)
Format settings, Endianness : Big
Codec ID : A_AC3
Duration : 1h 33mn
Bit rate mode : Constant
Bit rate : 128 Kbps
Channel count : 2 channels
Channel positions : Front: L R
Sampling rate : 48.0 KHz
Bit depth : 16 bits
Compression mode : Lossy
Delay relative to video : 900ms
Stream size : 85.2 MiB (5%)
Title : Audio Latino [WwW.CinemaniaHD.org]
Default : Yes
Forced : No

Audio #2
ID : 3
Format : AC-3
Format/Info : Audio Coding 3
Mode extension : CM (complete main)
Format settings, Endianness : Big
Codec ID : A_AC3
Duration : 1h 33mn
Bit rate mode : Constant
Bit rate : 320 Kbps
Channel count : 6 channels
Channel positions : Front: L C R, Side: L R, LFE
Sampling rate : 44.1 KHz
Bit depth : 16 bits
Compression mode : Lossy
Stream size : 213 MiB (11%)
Title : Audio Ingles [WwW.CinemaniaHD.org]
Default : No
Forced : No

Text #1
ID : 4
Format : UTF-8
Codec ID : S_TEXT/UTF8
Codec ID/Info : UTF-8 Plain Text
Title : Subtitulos Latino [WwW.CinemaniaHD.org]
Default : No
Forced : No

Text #2
ID : 5
Format : UTF-8
Codec ID : S_TEXT/UTF8
Codec ID/Info : UTF-8 Plain Text
Title : Subtitulos Ingles [WwW.CinemaniaHD.org]
Default : No
Forced : No

Text #3
ID : 6
Format : UTF-8
Codec ID : S_TEXT/UTF8
Codec ID/Info : UTF-8 Plain Text
Title : WwW.CinemaniaHD.org
Default : Yes
Forced : No

Menu
00:00:00.000 : en:Chapter 1
00:05:22.697 : en:Chapter 2
00:09:25.982 : en:Chapter 3
00:13:18.756 : en:Chapter 4
00:16:21.981 : en:Chapter 5
00:19:47.936 : en:Chapter 6
00:23:57.310 : en:Chapter 7
00:26:40.599 : en:Chapter 8
00:29:10.081 : en:Chapter 9
00:32:29.656 : en:Chapter 10
00:35:44.475 : en:Chapter 11
00:37:33.209 : en:Chapter 12
00:41:47.046 : en:Chapter 13
00:46:47.054 : en:Chapter 14
00:52:38.196 : en:Chapter 15
00:57:17.892 : en:Chapter 16
01:01:42.991 : en:Chapter 17
01:05:20.500 : en:Chapter 18
01:08:05.498 : en:Chapter 19
01:12:12.036 : en:Chapter 20
01:16:42.639 : en:Chapter 21
01:19:14.833 : en:Chapter 22
01:24:36.655 : en:Chapter 23
01:26:55.668 : en:Chapter 24

 

[/spoiler]

Sinopsis

Un prometedor estudiante es arrastrado por sus dos mejores amigos de la infancia a celebrar a lo grande su cumpleaños número 21, a pesar de que al día siguiente tiene una importante entrevista de admisión en la universidad de medicina. Pero una cerveza lleva a la otra, y como cabe esperar, la cosa va a desmadrarse hacia una espiral de accidentes, caos y libertinaje, que los llevará a una situación que ninguno de ellos olvidará jamás.

Capturas

Trailer

http://www.youtube.com/watch?v=-BmmLjaH8CQ

DESCARGAR

Links Intercambiables

 

Publicos

 


 

COMPRA TU CUENTA PREMIUM DESDE LOS SIGUIENTES ENLACES:

UPLOADED.TO >>>  Click Aqui

FREAKSHARE >>>  Click Aqui

Post Relacionados