Actualmente tenemos 4567 para descargar peliculas gratis 1080p latino

Actividad Paranormal: La Dimensión Fantasma (2015) 720p Latino-Ingles

Actividad Paranormal: La Dimensión Fantasma Brrip 720p Latino mkv mega un link por mega. La familia Fleege acaba de llegar a una nueva casa. Entre las cosas que dejaron la anterior familia que vivia ahi, encuentran una cámara de vídeo y unos viejos videos. El contenido de los videos muestran imágenes extrañas, de dos niñas que habitaban la casa anteriormente.



Titulo Original Paranormal Activity: The Ghost Dimension
Año 2015
Duracion 88 Min
Guion
Director Gregory Plotkin
Musica
Photografia John W. Rutland
Reparto Chris J. Murray, Brit Shaw, Ivy George, Dan Gill
Productora Chris J. Murray, Brit Shaw, Ivy George, Dan Gill
Genero
Titulo original Paranormal Activity: The Ghost Dimension 720p
Titulo Latino Actividad Paranormal: La Dimensión Fantasma 720p
Otros Titulos Paranormal Activity 5 720p Latino Mega
Audio Español Latino (AC3 5.1 BD) - Ingles (AC3 5.1 BD)
Calidad: 720p Resolucion: 1280x720 Formato: MKV
Codec: H.264 Encoder: DexterHD Peso: 1.47 GB
Subtitulos: Español Latino (.PGS) - Ingles (.PGS) Duracion: 01:37:21 Min Capitulos:
  • No hay video embed hola

General
Actividad Paranormal La Dimensión Fantasma (2015) 720p Latino-Ingles [WwW.CinemaniaHDD.com].mkv
Format : Matroska
Format version : Version 2
File size : 1.48 GiB
Duration : 1h 37mn
Overall bit rate : 2 169 Kbps
Movie name : Actividad Paranormal: La Dimensión Fantasma (2015) 720p Latino-Ingles [WwW.CinemaniaHDD.com]
Encoded date : UTC 2016-01-05 23:29:55
Writing application : mkvmerge v5.7.0 ('The Whirlwind') built on Jul 8 2012 20:08:51
Writing library : libebml v1.2.3 + libmatroska v1.3.0

Video
ID : 1
Format : AVC
Format/Info : Advanced Video Codec
Format profile : High@L4.1
Format settings, CABAC : Yes
Format settings, ReFrames : 4 frames
Muxing mode : Header stripping
Codec ID : V_MPEG4/ISO/AVC
Duration : 1h 37mn
Bit rate : 1 230 Kbps
Nominal bit rate : 1 300 Kbps
Width : 1 280 pixels
Height : 720 pixels
Display aspect ratio : 16:9
Frame rate mode : Constant
Frame rate : 23.976 (24000/1001) fps
Color space : YUV
Chroma subsampling : 4:2:0
Bit depth : 8 bits
Scan type : Progressive
Bits/(Pixel*Frame) : 0.056
Stream size : 857 MiB (57%)
Title : [WwW.CinemaniaHDD.com]
Writing library : x264 core 142 r2479 dd79a61
Encoding settings : cabac=1 / ref=3 / deblock=1:0:0 / analyse=0x3:0x113 / me=hex / subme=7 / psy=1 / psy_rd=1.00:0.00 / mixed_ref=1 / me_range=16 / chroma_me=1 / trellis=1 / 8x8dct=1 / cqm=0 / deadzone=21,11 / fast_pskip=1 / chroma_qp_offset=-2 / threads=36 / lookahead_threads=5 / sliced_threads=0 / nr=0 / decimate=1 / interlaced=0 / bluray_compat=0 / constrained_intra=0 / bframes=3 / b_pyramid=2 / b_adapt=1 / b_bias=0 / direct=1 / weightb=1 / open_gop=0 / weightp=2 / keyint=240 / keyint_min=24 / scenecut=40 / intra_refresh=0 / rc_lookahead=40 / rc=abr / mbtree=1 / bitrate=1300 / ratetol=1.0 / qcomp=0.60 / qpmin=0 / qpmax=69 / qpstep=4 / vbv_maxrate=62500 / vbv_bufsize=78125 / nal_hrd=none / filler=0 / ip_ratio=1.40 / aq=1:1.00
Default : Yes
Forced : No
Color range : Limited
Color primaries : BT.709
Transfer characteristics : BT.709
Matrix coefficients : BT.709

Audio #1
ID : 2
Format : AC-3
Format/Info : Audio Coding 3
Mode extension : CM (complete main)
Format settings, Endianness : Big
Muxing mode : Header stripping
Codec ID : A_AC3
Duration : 1h 37mn
Bit rate mode : Constant
Bit rate : 448 Kbps
Channel(s) : 6 channels
Channel positions : Front: L C R, Side: L R, LFE
Sampling rate : 48.0 KHz
Frame rate : 31.250 fps (1536 spf)
Compression mode : Lossy
Delay relative to video : -83ms
Stream size : 312 MiB (21%)
Title : Audio Latino [WwW.CinemaniaHDD.com]
Language : Spanish
Default : Yes
Forced : No

Audio #2
ID : 3
Format : AC-3
Format/Info : Audio Coding 3
Mode extension : CM (complete main)
Format settings, Endianness : Big
Muxing mode : Header stripping
Codec ID : A_AC3
Duration : 1h 37mn
Bit rate mode : Constant
Bit rate : 448 Kbps
Channel(s) : 6 channels
Channel positions : Front: L C R, Side: L R, LFE
Sampling rate : 48.0 KHz
Frame rate : 31.250 fps (1536 spf)
Compression mode : Lossy
Delay relative to video : -5ms
Stream size : 312 MiB (21%)
Title : Audio Ingles [WwW.CinemaniaHDD.com]
Language : English
Default : No
Forced : No

Text #1
ID : 4
Format : PGS
Muxing mode : zlib
Codec ID : S_HDMV/PGS
Codec ID/Info : Picture based subtitle format used on BDs/HD-DVDs
Title : Subtitulos Ingles [WwW.CinemaniaHDD.com]
Language : English
Default : No
Forced : No

Text #2
ID : 5
Format : PGS
Muxing mode : zlib
Codec ID : S_HDMV/PGS
Codec ID/Info : Picture based subtitle format used on BDs/HD-DVDs
Title : Subtitulos Latino [WwW.CinemaniaHDD.com]
Language : Spanish
Default : No
Forced : No

Text #3
ID : 6
Format : UTF-8
Codec ID : S_TEXT/UTF8
Codec ID/Info : UTF-8 Plain Text
Title : [WwW.CinemaniaHDD.com]
Default : Yes
Forced : No

Download Links

CONTRASEÑA PARA DESCOMPRIMIR

APORTES NUEVOS

cinemaniahdd.com

APORTES VIEJOS

CinemaniaHD.org

COMPRA O RENUEVA TU PREMIUM DE UPLOADED DESDE EL SIGUIENTE LINK:

http://ul.to/ref/9821430

SI GUSTAS PUEDES SEGUIRNOS EN LAS REDES SOCIALES

Facebook

Twitter

Post Relacionados