Actualmente tenemos 4567 para descargar peliculas gratis 1080p latino

Atracción Peligrosa (2010) 1080p BluRay x265 HEVC DTS Dual Latino

townx265poster
En Boston se producen más de 300 robos cada año. Y un barrio llamado Charlestown ha dado más ladrones de vehículos blindados y bancos que ningún otro lugar de EE.UU. Uno de ellos es Doug MacRay, aunque no está hecho de la misma pasta que sus colegas en el crimen. A diferencia de ellos, Doug sí ha tenido una oportunidad de tener éxito, una oportunidad para evitar seguir las huellas criminales de su padre. Pero en lugar de ello, se convirtió en el líder de un grupo de implacables ladrones de bancos que se enorgullecen de coger lo que quieren de forma limpia. La única familia que tiene Doug es la de sus socios criminales. Sin embargo, todo cambia tras el último trabajo de la banda. Doug intentará cambiar de vida y de ciudad, pero no le va a resultar fácil lograrlo.


Titulo Original The Town
Año 2010-09-15
Duracion 125
Guion Peter Craig (screenplay), Ben Affleck (screenplay), Aaron Stockard (screenplay), Chuck Hogan (novel)
Director Ben Affleck
Musica
Photografia
Reparto Ben Affleck, Rebecca Hall, Jon Hamm, Jeremy Renner
Productora Legendary Pictures, GK Films, Thunder Road Pictures, Warner Bros.,
Genero Crimen, Drama, Suspense,
Titulo original The Town
Titulo Latino Atracción Peligrosa
Otros Titulos The Town Ciudad De Ladrones
Audio Español Latino AC3 5.1 [448 Kbps] - Inglés DTS 5.1 [1509 Kbps]
Calidad: FULL HD 1080p Resolucion: 1920x1080 Formato: MKV
Codec: H.265 Encoder: Peso: 5.62 GB
Subtitulos: Español Latino [PGS] + [SRT] - Forzados [PGS] + [SRT] Duracion: 2h 5min Capitulos:
  • No hay video embed hola

Atracción Peligrosa (2010) 1080p BluRay x265 HEVC DTS Dual Latino.mkv
Format : Matroska
Format version : Version 4 / Version 2
File size : 5.62 GiB
Duration : 2h 4mn
Overall bit rate : 6 446 Kbps
Encoded date : UTC 2016-12-19 23:59:09
Writing application : mkvmerge v8.6.1 ('Flying') 64bit
Writing library : libebml v1.3.3 + libmatroska v1.4.4
DURATION : 02:00:02.611000000
NUMBER_OF_FRAMES : 26
NUMBER_OF_BYTES : 978
_STATISTICS_WRITING_APP : mkvmerge v8.6.1 ('Flying') 64bit
_STATISTICS_WRITING_DATE_UT : 2016-12-19 23:59:09
_STATISTICS_TAGS : BPS DURATION NUMBER_OF_FRAMES NUMBER_OF_BYTES

Video
ID : 1
Format : HEVC
Format/Info : High Efficiency Video Coding
Format profile : Main@L4@Main
Codec ID : V_MPEGH/ISO/HEVC
Duration : 2h 4mn
Bit rate : 4 361 Kbps
Width : 1 920 pixels
Height : 1 080 pixels
Display aspect ratio : 16:9
Frame rate mode : Constant
Frame rate : 23.976 fps
Color space : YUV
Chroma subsampling : 4:2:0
Bit depth : 8 bits
Bits/(Pixel*Frame) : 0.088
Stream size : 3.80 GiB (68%)
Writing library : x265 1.9:[Windows][GCC 4.9.0][64 bit] 8bit
Encoding settings : wpp / ctu=64 / min-cu-size=8 / max-tu-size=32 / tu-intra-depth=1 / tu-inter-depth=1 / me=3 / subme=3 / merange=57 / rect / no-amp / max-merge=3 / temporal-mvp / no-early-skip / rdpenalty=0 / no-tskip / no-tskip-fast / strong-intra-smoothing / no-lossless / no-cu-lossless / no-constrained-intra / no-fast-intra / open-gop / no-temporal-layers / interlace=0 / keyint=240 / min-keyint=24 / scenecut=40 / rc-lookahead=25 / lookahead-slices=4 / bframes=4 / bframe-bias=0 / b-adapt=2 / ref=4 / limit-refs=3 / limit-modes / weightp / no-weightb / aq-mode=1 / qg-size=32 / aq-strength=1.00 / cbqpoffs=0 / crqpoffs=0 / rd=4 / psy-rd=2.00 / rdoq-level=2 / psy-rdoq=1.00 / signhide / deblock / sao / no-sao-non-deblock / b-pyramid / cutree / no-intra-refresh / rc=crf / crf=20.0 / qcomp=0.60 / qpmin=0 / qpmax=51 / qpstep=4 / ipratio=1.40 / pbratio=1.30
Default : Yes
Forced : No
Color range : Limited
Color primaries : BT.709
Transfer characteristics : BT.709
Matrix coefficients : BT.709
DURATION : 02:04:44.144000000
NUMBER_OF_FRAMES : 179440
NUMBER_OF_BYTES : 4167628361
_STATISTICS_WRITING_APP : mkvmerge v8.6.1 ('Flying') 64bit
_STATISTICS_WRITING_DATE_UT : 2016-12-19 23:59:09
_STATISTICS_TAGS : BPS DURATION NUMBER_OF_FRAMES NUMBER_OF_BYTES

Audio #1
ID : 2
Format : AC-3
Format/Info : Audio Coding 3
Mode extension : CM (complete main)
Format settings, Endianness : Big
Codec ID : A_AC3
Duration : 2h 4mn
Bit rate mode : Constant
Bit rate : 448 Kbps
Channel(s) : 6 channels
Channel positions : Front: L C R, Side: L R, LFE
Sampling rate : 48.0 KHz
Compression mode : Lossy
Delay relative to video : -83ms
Stream size : 400 MiB (7%)
Title : Español Latino AC3 5.1 [448 Kbps]
Language : Spanish
Default : Yes
Forced : No

Audio #2
ID : 3
Format : DTS
Format/Info : Digital Theater Systems
Mode : 16
Format settings, Endianness : Big
Codec ID : A_DTS
Duration : 2h 4mn
Bit rate mode : Constant
Bit rate : 1 509 Kbps
Channel(s) : 6 channels
Channel positions : Front: L C R, Side: L R, LFE
Sampling rate : 48.0 KHz
Bit depth : 24 bits
Compression mode : Lossy
Delay relative to video : -83ms
Stream size : 1.31 GiB (23%)
Title : Inglés DTS 5.1 [1509 Kbps]
Language : Spanish
Default : No
Forced : No

Text #1
ID : 4
Format : PGS
Codec ID : S_HDMV/PGS
Codec ID/Info : Picture based subtitle format used on BDs/HD-DVDs
Title : Subtítulos Español Latino [PGS]
Language : Spanish
Default : No
Forced : No

Text #2
ID : 5
Format : PGS
Codec ID : S_HDMV/PGS
Codec ID/Info : Picture based subtitle format used on BDs/HD-DVDs
Title : Subtítulos Español Latino - Forzados [PGS]
Language : Spanish
Default : No
Forced : No

Text #3
ID : 6
Format : UTF-8
Codec ID : S_TEXT/UTF8
Codec ID/Info : UTF-8 Plain Text
Title : Subtítulos Español Latino [SRT]
Language : Spanish
Default : No
Forced : No

Text #4
ID : 7
Format : UTF-8
Codec ID : S_TEXT/UTF8
Codec ID/Info : UTF-8 Plain Text
Title : Subtítulos Español Latino - Forzados [SRT]
Language : Spanish
Default : No
Forced : Yes

Menu
00:00:00.000 : :Chapter 1
00:10:13.613 : :Chapter 2
00:17:50.819 : :Chapter 3
00:29:19.299 : :Chapter 4
00:38:45.906 : :Chapter 5
00:50:42.706 : :Chapter 6
00:58:41.017 : :Chapter 7
01:09:08.144 : :Chapter 8
01:17:31.355 : :Chapter 9
01:28:09.200 : :Chapter 10
01:37:58.747 : :Chapter 11
01:48:42.349 : :Chapter 12
01:57:47.643 : :Chapter 13

Download Links

CONTRASEÑA PARA DESCOMPRIMIR

APORTES NUEVOS

cinemaniahdd.com

APORTES VIEJOS

CinemaniaHD.org

COMPRA O RENUEVA TU PREMIUM DE UPLOADED DESDE EL SIGUIENTE LINK:

http://ul.to/ref/9821430

SI GUSTAS PUEDES SEGUIRNOS EN LAS REDES SOCIALES

Facebook

Twitter

Post Relacionados