Actualmente tenemos 4567 para descargar peliculas gratis 1080p latino

Batman V. Superman ULTIMATE (2016) 1080p FULL HD Latino – Ingles

Ante el temor de las acciones que pueda llevar a cabo Superman, el vigilante de Gotham City aparece para poner a raya al superhéroe de Metrópolis, mientras que la opinión pública debate cuál es realmente el héroe que necesitan. El hombre de acero y Batman se sumergen en una contienda territorial, pero las cosas se complican cuando una nueva y peligrosa amenaza surge rápidamente, poniendo en jaque la existencia de la humanidad.



Titulo Original Batman v. Superman: Dawn of Justice
Año 2016
Duracion 3h 2mn
Guion
Director Zack Snyder
Musica Hans Zimmer, Junkie XL
Photografia Larry Fong
Reparto Ben Affleck, Henry Cavill, Amy Adams, Jesse Eisenberg, Gal Gadot, Diane Lane, Laurence Fishburne, Jeremy Irons, Holly Hunter, Scoot McNairy, Callan Mulvey, Tao Okamoto, Brandon Spink, Lauren Cohan, Michael Shannon, Hugh Maguire, Jason Momoa, Ezra Miller, Ray Fisher
Productora Ben Affleck, Henry Cavill, Amy Adams, Jesse Eisenberg, Gal Gadot, Diane Lane, Laurence Fishburne, Jeremy Irons, Holly Hunter, Scoot McNairy, Callan Mulvey, Tao Okamoto, Brandon Spink, Lauren Cohan, Michael Shannon, Hugh Maguire, Jason Momoa, Ezra Miller, Ray Fisher
Genero
Titulo original Batman v Superman: Dawn of Justice ULTIMATE (2016) 1080p FULL HD Latino – Ingles
Titulo Latino Batman V. Superman ULTIMATE (2016) 1080p FULL HD Latino – Ingles
Otros Titulos Batman V. Superman ULTIMATE (2016) 1080p FULL HD Latino – Ingles
Audio Español Latino [AC3 5.1 EDITADO] - Ingles [AC3 5.1 BD]
Calidad: FULL HD 1080p Resolucion: 1920x1080p Formato: MKV
Codec: H.264 Encoder: ADDKiQ Peso: 6.1 GB
Subtitulos: Español Latino [SRT+PGS] - Ingles [PGS] Duracion: 3h 2mn Capitulos:
  • No hay video embed hola

General
Complete name : E:\Batman V Superman Dawn Of Justice 2016 ULTIMATE ADDKiQ.mkv
Format : Matroska
Format version : Version 4 / Version 2
File size : 6.19 GiB
Duration : 3h 2mn
Overall bit rate : 4 857 Kbps
Encoded date : UTC 2016-07-08T02:28:27Z
Writing application : mkvmerge v9.2.0 ('Photograph') 32bit
Writing library : Lavf55.12.0
DURATION : 02:52:48.349000000
NUMBER_OF_FRAMES : 467
NUMBER_OF_BYTES : 17318
_STATISTICS_WRITING_APP : mkvmerge v9.2.0 ('Photograph') 32bit
_STATISTICS_WRITING_DATE_UTC : 2016-07-08 17:23:15
_STATISTICS_TAGS : BPS DURATION NUMBER_OF_FRAMES NUMBER_OF_BYTES

Video
ID : 1
Format : AVC
Format/Info : Advanced Video Codec
Format profile : High@L4.1
Format settings, CABAC : Yes
Format settings, ReFrames : 4 frames
Codec ID : V_MPEG4/ISO/AVC
Duration : 3h 2mn
Bit rate : 3 800 Kbps
Width : 1 920 pixels
Height : 1 080 pixels
Display aspect ratio : 16:9
Frame rate mode : Constant
Frame rate : 24.000 fps
Color space : YUV
Chroma subsampling : 4:2:0
Bit depth : 8 bits
Scan type : Progressive
Bits/(Pixel*Frame) : 0.076
Stream size : 4.85 GiB (78%)
Writing library : x264 core 142 r2479 dd79a61
Encoding settings : cabac=1 / ref=4 / deblock=1:0:0 / analyse=0x3:0x133 / me=esa / subme=9 / psy=1 / psy_rd=1.00:0.00 / mixed_ref=1 / me_range=16 / chroma_me=1 / trellis=2 / 8x8dct=1 / cqm=0 / deadzone=21,11 / fast_pskip=1 / chroma_qp_offset=-2 / threads=12 / lookahead_threads=1 / sliced_threads=0 / nr=0 / decimate=1 / interlaced=0 / bluray_compat=0 / constrained_intra=0 / bframes=3 / b_pyramid=2 / b_adapt=2 / b_bias=0 / direct=3 / weightb=1 / open_gop=0 / weightp=2 / keyint=240 / keyint_min=24 / scenecut=40 / intra_refresh=0 / rc_lookahead=60 / rc=crf / mbtree=1 / crf=23.0 / qcomp=0.60 / qpmin=0 / qpmax=69 / qpstep=4 / vbv_maxrate=62500 / vbv_bufsize=78125 / crf_max=0.0 / nal_hrd=none / filler=0 / ip_ratio=1.40 / aq=1:1.00
Default : Yes
Forced : No
Color range : Limited
Color primaries : BT.709
Transfer characteristics : BT.709
Matrix coefficients : BT.709
DURATION : 03:02:33.649000000
NUMBER_OF_FRAMES : 262625
NUMBER_OF_BYTES : 5311452757
_STATISTICS_WRITING_APP : mkvmerge v9.2.0 ('Photograph') 32bit
_STATISTICS_WRITING_DATE_UTC : 2016-07-08 17:23:15
_STATISTICS_TAGS : BPS DURATION NUMBER_OF_FRAMES NUMBER_OF_BYTES

Audio #1
ID : 2
Format : AC-3
Format/Info : Audio Coding 3
Mode extension : CM (complete main)
Format settings, Endianness : Big
Codec ID : A_AC3
Duration : 3h 2mn
Bit rate mode : Constant
Bit rate : 512 Kbps
Channel(s) : 6 channels
Channel positions : Front: L C R, Side: L R, LFE
Sampling rate : 48.0 KHz
Compression mode : Lossy
Delay relative to video : 917ms
Stream size : 669 MiB (11%)
Title : LATINO
Default : No
Forced : Yes
DURATION : 03:02:33.664000000
NUMBER_OF_FRAMES : 342302
NUMBER_OF_BYTES : 613405184
_STATISTICS_WRITING_APP : mkvmerge v9.2.0 ('Photograph') 32bit
_STATISTICS_WRITING_DATE_UTC : 2016-07-08 17:23:15
_STATISTICS_TAGS : BPS DURATION NUMBER_OF_FRAMES NUMBER_OF_BYTES

Audio #2
ID : 3
Format : AC-3
Format/Info : Audio Coding 3
Mode extension : CM (complete main)
Format settings, Endianness : Big
Codec ID : A_AC3
Duration : 3h 2mn
Bit rate mode : Constant
Bit rate : 448 Kbps
Channel(s) : 6 channels
Channel positions : Front: L C R, Side: L R, LFE
Sampling rate : 48.0 KHz
Compression mode : Lossy
Stream size : 585 MiB (9%)
Title : INGLES
Language : English
Default : Yes
Forced : No
DURATION : 03:02:13.006000000
NUMBER_OF_FRAMES : 3210
NUMBER_OF_BYTES : 9540838
_STATISTICS_WRITING_APP : mkvmerge v9.2.0 ('Photograph') 32bit
_STATISTICS_WRITING_DATE_UTC : 2016-07-08 17:23:15
_STATISTICS_TAGS : BPS DURATION NUMBER_OF_FRAMES NUMBER_OF_BYTES

Text #1
ID : 4
Format : PGS
Muxing mode : zlib
Codec ID : S_HDMV/PGS
Codec ID/Info : Picture based subtitle format used on BDs/HD-DVDs
Language : Spanish
Default : No
Forced : No
DURATION : 03:02:13.006000000
NUMBER_OF_FRAMES : 3830
NUMBER_OF_BYTES : 12059086
_STATISTICS_WRITING_APP : mkvmerge v9.2.0 ('Photograph') 32bit
_STATISTICS_WRITING_DATE_UTC : 2016-07-08 17:23:15
_STATISTICS_TAGS : BPS DURATION NUMBER_OF_FRAMES NUMBER_OF_BYTES

Text #2
ID : 5
Format : PGS
Muxing mode : zlib
Codec ID : S_HDMV/PGS
Codec ID/Info : Picture based subtitle format used on BDs/HD-DVDs
Language : English
Default : No
Forced : No

Text #3
ID : 6
Format : UTF-8
Codec ID : S_TEXT/UTF8
Codec ID/Info : UTF-8 Plain Text
Title : SUBS ESPAÑOL
Default : Yes
Forced : No

Text #4
ID : 7
Format : UTF-8
Codec ID : S_TEXT/UTF8
Codec ID/Info : UTF-8 Plain Text
Title : FORZADOS
Default : No
Forced : No

Menu
00:00:00.000 : :Chapter 1
00:10:10.733 : :Chapter 2
00:27:00.742 : :Chapter 3
00:37:49.306 : :Chapter 4
00:46:54.601 : :Chapter 5
01:02:05.052 : :Chapter 6
01:14:10.694 : :Chapter 7
01:28:07.196 : :Chapter 8
01:41:46.723 : :Chapter 9
01:53:52.699 : :Chapter 10
02:02:58.160 : :Chapter 11
02:15:04.135 : :Chapter 12
02:27:55.156 : :Chapter 13
02:36:51.525 : :Chapter 14
02:48:27.595 : :Chapter 15

Download Links

CONTRASEÑA PARA DESCOMPRIMIR

APORTES NUEVOS

cinemaniahdd.com

APORTES VIEJOS

CinemaniaHD.org

COMPRA O RENUEVA TU PREMIUM DE UPLOADED DESDE EL SIGUIENTE LINK:

http://ul.to/ref/9821430

SI GUSTAS PUEDES SEGUIRNOS EN LAS REDES SOCIALES

Facebook

Twitter

Post Relacionados