Actualmente tenemos 4567 para descargar peliculas gratis 1080p latino

Destino Final 4 (2009) 1080p BluRay x265 HEVC DTS Dual Latino

final-destination-4
Nick O’Bannon y unos amigos acuden a un circuito de carreras para presenciar una prueba del Nascar. Durante ésta tiene lugar un terrible accidente que conlleva desastrosas consecuencias para el estadio. Pero Nick descubre que se trata de sólo una visión de algo que está a punto de suceder, y junto con otras doce personas consigue salir del recinto y escapar de una tragedia segura. Pensando que han burlado a la muerte, el grupo continúa con su vida, pero desafortunadamente para Nick, Lori y sus amigos sólo es el principio, ya que la muerte no deja cabos sueltos, y regresará para llevarse a los supervivientes de una manera brutal.


Titulo Original The Final Destination
Año 2009-08-26
Duracion 82
Guion Eric Bress, Jeffrey Reddick (characters)
Director David R. Ellis
Musica
Photografia
Reparto Bobby Campo, Shantel VanSanten, Nick Zano, Haley Webb
Productora New Line Cinema, Practical Pictures, Parallel Zide,
Genero Terror, Misterio,
Titulo original The Final Destination
Titulo Latino El Destino Final 4
Otros Titulos Destino Final 4
Audio Español Latino AC3 5.1 - Inglés DTS 5.1
Calidad: FULL HD 1080p Resolucion: 1920x1080 Formato: MKV
Codec: H.265 Encoder: SebastianHDx Peso: 3.56 GB
Subtitulos: Español Latino [PGS] - Español Latino [SRT] Duracion: 1h 22min Capitulos:
  • No hay video embed hola

Destino Final 4 (2009) 1080p BluRay x265 HEVC DTS Dual Latino.mkv
Format : Matroska
Format version : Version 4 / Version 2
File size : 3.56 GiB
Duration : 1h 21mn
Overall bit rate : 6 232 Kbps
Encoded date : UTC 2016-12-25 22:51:45
Writing application : mkvmerge v8.6.1 ('Flying') 64bit
Writing library : libebml v1.3.3 + libmatroska v1.4.4
DURATION : 01:15:33.486000000
NUMBER_OF_FRAMES : 797
NUMBER_OF_BYTES : 26028
_STATISTICS_WRITING_APP : mkvmerge v8.6.1 ('Flying') 64bit
_STATISTICS_WRITING_DATE_UT : 2016-12-25 22:51:45
_STATISTICS_TAGS : BPS DURATION NUMBER_OF_FRAMES NUMBER_OF_BYTES

Video
ID : 1
Format : HEVC
Format/Info : High Efficiency Video Coding
Format profile : Main@L4@Main
Codec ID : V_MPEGH/ISO/HEVC
Duration : 1h 21mn
Bit rate : 3 959 Kbps
Width : 1 920 pixels
Height : 1 080 pixels
Display aspect ratio : 16:9
Frame rate mode : Constant
Frame rate : 23.976 fps
Color space : YUV
Chroma subsampling : 4:2:0
Bit depth : 8 bits
Bits/(Pixel*Frame) : 0.080
Stream size : 2.26 GiB (64%)
Writing library : x265 1.9:[Windows][GCC 4.9.0][64 bit] 8bit
Encoding settings : wpp / ctu=64 / min-cu-size=8 / max-tu-size=32 / tu-intra-depth=1 / tu-inter-depth=1 / me=3 / subme=3 / merange=57 / rect / no-amp / max-merge=3 / temporal-mvp / no-early-skip / rdpenalty=0 / no-tskip / no-tskip-fast / strong-intra-smoothing / no-lossless / no-cu-lossless / no-constrained-intra / no-fast-intra / open-gop / no-temporal-layers / interlace=0 / keyint=240 / min-keyint=24 / scenecut=40 / rc-lookahead=25 / lookahead-slices=4 / bframes=4 / bframe-bias=0 / b-adapt=2 / ref=4 / limit-refs=3 / limit-modes / weightp / no-weightb / aq-mode=1 / qg-size=32 / aq-strength=1.00 / cbqpoffs=0 / crqpoffs=0 / rd=4 / psy-rd=2.00 / rdoq-level=2 / psy-rdoq=1.00 / signhide / deblock / sao / no-sao-non-deblock / b-pyramid / cutree / no-intra-refresh / rc=crf / crf=20.0 / qcomp=0.60 / qpmin=0 / qpmax=51 / qpstep=4 / ipratio=1.40 / pbratio=1.30
Default : Yes
Forced : No
Color range : Limited
Color primaries : BT.709
Transfer characteristics : BT.709
Matrix coefficients : BT.709
DURATION : 01:21:46.944000000
NUMBER_OF_FRAMES : 117649
NUMBER_OF_BYTES : 2490063838
_STATISTICS_WRITING_APP : mkvmerge v8.6.1 ('Flying') 64bit
_STATISTICS_WRITING_DATE_UT : 2016-12-25 22:51:45
_STATISTICS_TAGS : BPS DURATION NUMBER_OF_FRAMES NUMBER_OF_BYTES

Audio #1
ID : 2
Format : AC-3
Format/Info : Audio Coding 3
Mode extension : CM (complete main)
Format settings, Endianness : Big
Codec ID : A_AC3
Duration : 1h 21mn
Bit rate mode : Constant
Bit rate : 640 Kbps
Channel(s) : 6 channels
Channel positions : Front: L C R, Side: L R, LFE
Sampling rate : 48.0 KHz
Compression mode : Lossy
Delay relative to video : -83ms
Stream size : 375 MiB (10%)
Title : Español Latino AC3 5.1 [640 Kbps]
Language : Spanish
Default : Yes
Forced : No

Audio #2
ID : 3
Format : DTS
Format/Info : Digital Theater Systems
Mode : 16
Format settings, Endianness : Big
Codec ID : A_DTS
Duration : 1h 21mn
Bit rate mode : Constant
Bit rate : 1 509 Kbps
Channel(s) : 6 channels
Channel positions : Front: L C R, Side: L R, LFE
Sampling rate : 48.0 KHz
Bit depth : 16 bits
Compression mode : Lossy
Delay relative to video : -83ms
Stream size : 883 MiB (24%)
Title : Inglés DTS 5.1 [1509 Kbps]
Language : English
Default : No
Forced : No

Text #1
ID : 4
Format : PGS
Codec ID : S_HDMV/PGS
Codec ID/Info : Picture based subtitle format used on BDs/HD-DVDs
Title : Subtítulos Español Latino [PGS]
Language : Spanish
Default : No
Forced : No

Text #2
ID : 5
Format : PGS
Codec ID : S_HDMV/PGS
Codec ID/Info : Picture based subtitle format used on BDs/HD-DVDs
Title : Subtítulos Español Latino - Forzados [PGS]
Language : Spanish
Default : No
Forced : No

Text #3
ID : 6
Format : UTF-8
Codec ID : S_TEXT/UTF8
Codec ID/Info : UTF-8 Plain Text
Title : Subtítulos Español Latino [SRT]
Language : Spanish
Default : No
Forced : No

Text #4
ID : 7
Format : UTF-8
Codec ID : S_TEXT/UTF8
Codec ID/Info : UTF-8 Plain Text
Title : Subtítulos Español Latino - Forzados [SRT]
Language : Spanish
Default : No
Forced : Yes

Menu
00:00:00.000 : :Chapter 1
00:04:00.406 : :Chapter 2
00:06:42.276 : :Chapter 3
00:11:29.313 : :Chapter 4
00:12:57.735 : :Chapter 5
00:17:40.434 : :Chapter 6
00:21:32.916 : :Chapter 7
00:23:36.206 : :Chapter 8
00:27:00.577 : :Chapter 9
00:29:12.500 : :Chapter 10
00:32:49.259 : :Chapter 11
00:35:44.767 : :Chapter 12
00:39:15.102 : :Chapter 13
00:43:37.323 : :Chapter 14
00:47:01.151 : :Chapter 15
00:50:05.168 : :Chapter 16
00:55:22.569 : :Chapter 17
00:59:46.374 : :Chapter 18
01:01:22.971 : :Chapter 19
01:05:41.771 : :Chapter 20
01:08:18.219 : :Chapter 21
01:09:56.066 : :Chapter 22
01:13:34.201 : :Chapter 23
01:16:35.132 : :Chapter 24

Download Links

CONTRASEÑA PARA DESCOMPRIMIR

APORTES NUEVOS

cinemaniahdd.com

APORTES VIEJOS

CinemaniaHD.org

COMPRA O RENUEVA TU PREMIUM DE UPLOADED DESDE EL SIGUIENTE LINK:

http://ul.to/ref/9821430

SI GUSTAS PUEDES SEGUIRNOS EN LAS REDES SOCIALES

Facebook

Twitter

Post Relacionados