Actualmente tenemos 4567 para descargar peliculas gratis 1080p latino

Destino Final 5 (2011) 1080p BluRay x265 HEVC DTS Dual Latino

final-destination-5-265
Sam Lawton tiene una premonición sobre la destrucción de un puente colgante que causaría su muerte y la de otras personas. La visión se hace realidad, pero Sam se las arregla para salvarse a sí mismo y a algunos otros de la catastrófica tragedia. Sin embargo, Sam y su novia Molly descubren que no están realmente a salvo: la muerte los persigue a ellos y a los que sobrevivieron al horrible accidente... Quinta entrega de la popular serie de terror "Destino final".


Titulo Original Final Destination 5
Año 2011-08-12
Duracion 95
Guion Eric Heisserer, Jeffrey Reddick (characters)
Director Steven Quale
Musica
Photografia
Reparto Nicholas D'Agosto, Emma Bell, Miles Fisher, Ellen Wroe
Productora New Line Cinema, Practical Pictures, Parallel Zide,
Genero Terror, Misterio,
Titulo original Final Destination 5
Titulo Latino Destino Final 5
Otros Titulos
Audio Español Latino AC3 5.1 - Inglés DTS 5.1
Calidad: FULL HD 1080p Resolucion: 1920X1080 Formato: MKV
Codec: H.265 Encoder: SebastianHDx Peso: 2.86 GB
Subtitulos: Español Latino [PGS] - Forzados [PGS/SRT] Duracion: 1h 32min Capitulos:
  • No hay video embed hola

Destino Final 5 (2011) 1080p BluRay x265 HEVC DTS Dual Latino.mkv
Format : Matroska
Format version : Version 4 / Version 2
File size : 2.86 GiB
Duration : 1h 31mn
Overall bit rate : 4 462 Kbps
Encoded date : UTC 2016-12-30 03:31:00
Writing application : mkvmerge v8.6.1 ('Flying') 64bit
Writing library : libebml v1.3.3 + libmatroska v1.4.4
DURATION : 01:26:30.644000000
NUMBER_OF_FRAMES : 50
NUMBER_OF_BYTES : 1218
_STATISTICS_WRITING_APP : mkvmerge v8.6.1 ('Flying') 64bit
_STATISTICS_WRITING_DATE_UT : 2016-12-30 03:31:00
_STATISTICS_TAGS : BPS DURATION NUMBER_OF_FRAMES NUMBER_OF_BYTES

Video
ID : 1
Format : HEVC
Format/Info : High Efficiency Video Coding
Format profile : Main@L4@Main
Codec ID : V_MPEGH/ISO/HEVC
Duration : 1h 31mn
Bit rate : 2 224 Kbps
Width : 1 920 pixels
Height : 1 080 pixels
Display aspect ratio : 16:9
Frame rate mode : Constant
Frame rate : 23.976 fps
Color space : YUV
Chroma subsampling : 4:2:0
Bit depth : 8 bits
Bits/(Pixel*Frame) : 0.045
Stream size : 1.43 GiB (50%)
Writing library : x265 1.9:[Windows][GCC 4.9.0][64 bit] 8bit
Encoding settings : wpp / ctu=64 / min-cu-size=8 / max-tu-size=32 / tu-intra-depth=1 / tu-inter-depth=1 / me=3 / subme=3 / merange=57 / rect / no-amp / max-merge=3 / temporal-mvp / no-early-skip / rdpenalty=0 / no-tskip / no-tskip-fast / strong-intra-smoothing / no-lossless / no-cu-lossless / no-constrained-intra / no-fast-intra / open-gop / no-temporal-layers / interlace=0 / keyint=240 / min-keyint=24 / scenecut=40 / rc-lookahead=25 / lookahead-slices=4 / bframes=4 / bframe-bias=0 / b-adapt=2 / ref=4 / limit-refs=3 / limit-modes / weightp / no-weightb / aq-mode=1 / qg-size=32 / aq-strength=1.00 / cbqpoffs=0 / crqpoffs=0 / rd=4 / psy-rd=2.00 / rdoq-level=2 / psy-rdoq=1.00 / signhide / deblock / sao / no-sao-non-deblock / b-pyramid / cutree / no-intra-refresh / rc=crf / crf=20.0 / qcomp=0.60 / qpmin=0 / qpmax=51 / qpstep=4 / ipratio=1.40 / pbratio=1.30
Default : Yes
Forced : No
Color range : Limited
Color primaries : BT.709
Transfer characteristics : BT.709
Matrix coefficients : BT.709
DURATION : 01:31:49.880000000
NUMBER_OF_FRAMES : 132105
NUMBER_OF_BYTES : 1574077390
_STATISTICS_WRITING_APP : mkvmerge v8.6.1 ('Flying') 64bit
_STATISTICS_WRITING_DATE_UT : 2016-12-30 03:31:00
_STATISTICS_TAGS : BPS DURATION NUMBER_OF_FRAMES NUMBER_OF_BYTES

Audio #1
ID : 2
Format : AC-3
Format/Info : Audio Coding 3
Mode extension : CM (complete main)
Format settings, Endianness : Big
Codec ID : A_AC3
Duration : 1h 31mn
Bit rate mode : Constant
Bit rate : 640 Kbps
Channel(s) : 6 channels
Channel positions : Front: L C R, Side: L R, LFE
Sampling rate : 48.0 KHz
Compression mode : Lossy
Delay relative to video : -83ms
Stream size : 420 MiB (14%)
Title : Español Latino AC3 5.1 [640 Kbps]
Language : Spanish
Default : Yes
Forced : No

Audio #2
ID : 3
Format : DTS
Format/Info : Digital Theater Systems
Mode : 16
Format settings, Endianness : Big
Codec ID : A_DTS
Duration : 1h 31mn
Bit rate mode : Constant
Bit rate : 1 509 Kbps
Channel(s) : 6 channels
Channel positions : Front: L C R, Side: L R, LFE
Sampling rate : 48.0 KHz
Bit depth : 24 bits
Compression mode : Lossy
Delay relative to video : -83ms
Stream size : 991 MiB (34%)
Title : Inglés DTS 5.1 [1509 Kbps]
Language : English
Default : No
Forced : No

Text #1
ID : 4
Format : PGS
Codec ID : S_HDMV/PGS
Codec ID/Info : Picture based subtitle format used on BDs/HD-DVDs
Title : Subtítulos Español Latino [PGS]
Language : Spanish
Default : No
Forced : No

Text #2
ID : 5
Format : PGS
Codec ID : S_HDMV/PGS
Codec ID/Info : Picture based subtitle format used on BDs/HD-DVDs
Title : Subtítulos Español Latino - Forzados [PGS]
Language : Spanish
Default : No
Forced : No

Text #3
ID : 6
Format : UTF-8
Codec ID : S_TEXT/UTF8
Codec ID/Info : UTF-8 Plain Text
Title : Subtítulos Español Latino - Forzados [SRT]
Language : Spanish
Default : No
Forced : Yes

Menu
00:00:00.000 : :Chapter 1
00:09:51.424 : :Chapter 2
00:20:22.846 : :Chapter 3
00:30:36.626 : :Chapter 4
00:40:57.079 : :Chapter 5
00:51:19.159 : :Chapter 6
01:00:55.860 : :Chapter 7
01:09:02.930 : :Chapter 8
01:22:35.659 : :Chapter 9
01:26:23.386 : :Chapter 10

Download Links

CONTRASEÑA PARA DESCOMPRIMIR

APORTES NUEVOS

cinemaniahdd.com

APORTES VIEJOS

CinemaniaHD.org

COMPRA O RENUEVA TU PREMIUM DE UPLOADED DESDE EL SIGUIENTE LINK:

http://ul.to/ref/9821430

SI GUSTAS PUEDES SEGUIRNOS EN LAS REDES SOCIALES

Facebook

Twitter

Post Relacionados