Actualmente tenemos 4567 para descargar peliculas gratis 1080p latino

El Hobbit: Un Viaje Inesperado (2012) 1080p FULL HD Latino – Ingles

Precuela de la trilogía “El Señor de los Anillos”, obra de J.R.R. Tolkien. En compañía del mago Gandalf y de trece enanos, el hobbit Bilbo Bolsón emprende un viaje a través del país de los elfos y los bosques de los trolls, desde las mazmorras de los orcos hasta la Montaña Solitaria, donde el dragón Smaug esconde el tesoro de los Enanos. Finalmente, en las profundidades de la Tierra, encuentra el Anillo Único, hipnótico objeto que será posteriormente causa de tantas sangrientas batallas en la Tierra Media.



Titulo Original The Hobbit: An Unexpected Journey
Año 2012
Duracion 170 min.
Guion
Director Peter Jackson
Musica Howard Shore
Photografia Andrew Lesnie
Reparto Martin Freeman, Ian McKellen, Richard Armitage, Ken Stott, Aidan Turner, James Nesbitt, Graham McTavish, Dean O\\\\\\\\\\\\\\\'Gorman, Peter Hambleton, Jed Brophy, Stephen Hunter, John Callen, Adam Brown, William Kircher, Mark Hadlow, Sylvester McCoy, Andy Serkis, Hugo Weaving, Cate Blanchett, Christopher Lee, Ian Holm, Barry Humphries, Manu Bennett, Elijah Wood, Bret McKenzie
Productora Martin Freeman, Ian McKellen, Richard Armitage, Ken Stott, Aidan Turner, James Nesbitt, Graham McTavish, Dean O\\\\\\\\\\\\\\\'Gorman, Peter Hambleton, Jed Brophy, Stephen Hunter, John Callen, Adam Brown, William Kircher, Mark Hadlow, Sylvester McCoy, Andy Serkis, Hugo Weaving, Cate Blanchett, Christopher Lee, Ian Holm, Barry Humphries, Manu Bennett, Elijah Wood, Bret McKenzie
Genero
Titulo original The Hobbit: An Unexpected Journey (2012) 1080p FULL HD Latino – Ingles
Titulo Latino El Hobbit: Un Viaje Inesperado (2012) 1080p FULL HD Latino – Ingles
Otros Titulos El Hobbit: Un Viaje Inesperado (2012) 1080p FULL HD Latino – Ingles
Audio Español Latino [AC3 5.1 BD] - Ingles DTS 5.1 BD]
Calidad: FULL HD 1080p Resolucion: 1920x1080p Formato: MKV
Codec: H.264 Encoder: ADDKiQ Peso: 8.6 GB
Subtitulos: Español Latino [SRT+PGS] - Ingles [PGS] Duracion: 170 min. Capitulos:
  • No hay video embed hola

General
Complete name : E:\Hobbit2012.ADDKiQ.mkv
Format : Matroska
Format version : Version 2
File size : 8.61 GiB
Duration : 2h 49mn
Overall bit rate : 7 267 Kbps
Encoded date : UTC 2016-06-26T15:28:51Z
Writing application : HandBrake 0.10.5 2016021100
Writing library : Lavf55.12.0

Video
ID : 1
Format : AVC
Format/Info : Advanced Video Codec
Format profile : High@L4.1
Format settings, CABAC : Yes
Format settings, ReFrames : 4 frames
Codec ID : V_MPEG4/ISO/AVC
Duration : 2h 49mn
Bit rate : 5 166 Kbps
Width : 1 920 pixels
Height : 1 080 pixels
Display aspect ratio : 16:9
Frame rate mode : Constant
Frame rate : 23.976 fps
Color space : YUV
Chroma subsampling : 4:2:0
Bit depth : 8 bits
Scan type : Progressive
Bits/(Pixel*Frame) : 0.104
Stream size : 6.12 GiB (71%)
Writing library : x264 core 142 r2479 dd79a61
Encoding settings : cabac=1 / ref=4 / deblock=1:0:0 / analyse=0x3:0x133 / me=tesa / subme=11 / psy=1 / psy_rd=1.00:0.00 / mixed_ref=1 / me_range=24 / chroma_me=1 / trellis=2 / 8x8dct=1 / cqm=0 / deadzone=21,11 / fast_pskip=0 / chroma_qp_offset=-2 / threads=12 / lookahead_threads=3 / sliced_threads=0 / nr=0 / decimate=1 / interlaced=0 / bluray_compat=0 / constrained_intra=0 / bframes=16 / b_pyramid=2 / b_adapt=2 / b_bias=0 / direct=3 / weightb=1 / open_gop=0 / weightp=2 / keyint=240 / keyint_min=24 / scenecut=40 / intra_refresh=0 / rc_lookahead=60 / rc=crf / mbtree=1 / crf=20.0 / qcomp=0.60 / qpmin=0 / qpmax=69 / qpstep=4 / vbv_maxrate=62500 / vbv_bufsize=78125 / crf_max=0.0 / nal_hrd=none / filler=0 / ip_ratio=1.40 / aq=1:1.00
Default : Yes
Forced : No
Color range : Limited
Color primaries : BT.709
Transfer characteristics : BT.709
Matrix coefficients : BT.709

Audio #1
ID : 2
Format : AC-3
Format/Info : Audio Coding 3
Mode extension : CM (complete main)
Format settings, Endianness : Big
Codec ID : A_AC3
Duration : 2h 49mn
Bit rate mode : Constant
Bit rate : 448 Kbps
Channel(s) : 6 channels
Channel positions : Front: L C R, Side: L R, LFE
Sampling rate : 48.0 KHz
Compression mode : Lossy
Stream size : 544 MiB (6%)
Title : Surround
Language : Spanish
Default : Yes
Forced : No

Audio #2
ID : 3
Format : DTS
Format/Info : Digital Theater Systems
Mode : 16
Format settings, Endianness : Big
Codec ID : A_DTS
Duration : 2h 49mn
Bit rate mode : Constant
Bit rate : 1 509 Kbps
Channel(s) : 6 channels
Channel positions : Front: L C R, Side: L R, LFE
Sampling rate : 48.0 KHz
Bit depth : 24 bits
Compression mode : Lossy
Stream size : 1.79 GiB (21%)
Title : Surround
Language : English
Default : No
Forced : No

Text #1
ID : 4
Format : PGS
Codec ID : S_HDMV/PGS
Codec ID/Info : Picture based subtitle format used on BDs/HD-DVDs
Language : Spanish
Default : No
Forced : No

Text #2
ID : 5
Format : PGS
Codec ID : S_HDMV/PGS
Codec ID/Info : Picture based subtitle format used on BDs/HD-DVDs
Language : English

Download Links

CONTRASEÑA PARA DESCOMPRIMIR

APORTES NUEVOS

cinemaniahdd.com

APORTES VIEJOS

CinemaniaHD.org

COMPRA O RENUEVA TU PREMIUM DE UPLOADED DESDE EL SIGUIENTE LINK:

http://ul.to/ref/9821430

SI GUSTAS PUEDES SEGUIRNOS EN LAS REDES SOCIALES

Facebook

Twitter

Post Relacionados