Actualmente tenemos 4567 para descargar peliculas gratis 1080p latino

El Señor de los Anillos: Las Dos Torres (2002) 1080p FULL HD Latino – Ingles

Tras la disolución de la Compañía del Anillo, Frodo y su fiel amigo Sam se dirigen hacia Mordor para destruir el Anillo Único y acabar con el poder de Sauron. Mientras, y tras la dura batalla contra los orcos donde cayó Boromir, el hombre Aragorn, el elfo Legolas y el enano Gimli intentan rescatar a los medianos Merry y Pipin, secuestrados por los orcos de Mordor. Por su parte, Saurón y el traidor Sarumán continúan con sus planes en Mordor, a la espera de la guerra contra las razas libres de la Tierra Media.



Titulo Original The Lord of the Rings: The Two Towers
Año 2002
Duracion 179 min.
Guion
Director Peter Jackson
Musica Howard Shore
Photografia Andrew Lesnie
Reparto Elijah Wood, Viggo Mortensen, Ian McKellen, Sean Astin, Andy Serkis, John Rhys-Davies, Orlando Bloom, Bernard Hill, Miranda Otto, David Wenham, Dominic Monaghan, Billy Boyd, Christopher Lee, Liv Tyler, Karl Urban, Brad Dourif, Hugo Weaving, Cate Blanchett, Craig Parker, John Leigh, Sean Bean, John Noble
Productora Elijah Wood, Viggo Mortensen, Ian McKellen, Sean Astin, Andy Serkis, John Rhys-Davies, Orlando Bloom, Bernard Hill, Miranda Otto, David Wenham, Dominic Monaghan, Billy Boyd, Christopher Lee, Liv Tyler, Karl Urban, Brad Dourif, Hugo Weaving, Cate Blanchett, Craig Parker, John Leigh, Sean Bean, John Noble
Genero
Titulo original The Lord of the Rings: The Two Towers (2002) 1080p FULL HD Latino – Ingles
Titulo Latino El Señor de los Anillos: Las Dos Torres (2002) 1080p FULL HD Latino – Ingles
Otros Titulos El Señor de los Anillos: Las Dos Torres (2002) 1080p FULL HD Latino – Ingles
Audio Español Latino [AC3 5.1 BD] - Ingles [DTS 5.1 BD]
Calidad: FULL HD 1080p Resolucion: 1920x1080p Formato: MKV
Codec: H.264 Encoder: ADDKiQ Peso: 10.7 GB
Subtitulos: Español Latino [SRT+PGS] - Ingles [PGS] Duracion: 179 min. Capitulos:
  • No hay video embed hola

General
Complete name : E:\The Two Towers.ADDKiQ.mkv
Format : Matroska
Format version : Version 4 / Version 2
File size : 10.8 GiB
Duration : 2h 59mn
Overall bit rate : 8 613 Kbps
Encoded date : UTC 2016-07-24T04:55:49Z
Writing application : mkvmerge v9.2.0 ('Photograph') 32bit
Writing library : Lavf55.12.0
DURATION : 02:58:02.358000000
NUMBER_OF_FRAMES : 45
NUMBER_OF_BYTES : 1166
_STATISTICS_WRITING_APP : mkvmerge v9.2.0 ('Photograph') 32bit
_STATISTICS_WRITING_DATE_UTC : 2016-07-25 20:19:53
_STATISTICS_TAGS : BPS DURATION NUMBER_OF_FRAMES NUMBER_OF_BYTES

Video
ID : 1
Format : AVC
Format/Info : Advanced Video Codec
Format profile : High@L4.1
Format settings, CABAC : Yes
Format settings, ReFrames : 4 frames
Codec ID : V_MPEG4/ISO/AVC
Bit rate : 6 292 Kbps
Width : 1 920 pixels
Height : 1 080 pixels
Display aspect ratio : 16:9
Frame rate mode : Variable
Color space : YUV
Chroma subsampling : 4:2:0
Bit depth : 8 bits
Scan type : Progressive
Writing library : x264 core 142 r2479 dd79a61
Encoding settings : cabac=1 / ref=4 / deblock=1:0:0 / analyse=0x3:0x133 / me=tesa / subme=11 / psy=1 / psy_rd=1.00:0.00 / mixed_ref=1 / me_range=24 / chroma_me=1 / trellis=2 / 8x8dct=1 / cqm=0 / deadzone=21,11 / fast_pskip=0 / chroma_qp_offset=-2 / threads=12 / lookahead_threads=3 / sliced_threads=0 / nr=0 / decimate=1 / interlaced=0 / bluray_compat=0 / constrained_intra=0 / bframes=16 / b_pyramid=2 / b_adapt=2 / b_bias=0 / direct=3 / weightb=1 / open_gop=0 / weightp=2 / keyint=240 / keyint_min=24 / scenecut=40 / intra_refresh=0 / rc_lookahead=60 / rc=crf / mbtree=1 / crf=20.0 / qcomp=0.60 / qpmin=0 / qpmax=69 / qpstep=4 / vbv_maxrate=62500 / vbv_bufsize=78125 / crf_max=0.0 / nal_hrd=none / filler=0 / ip_ratio=1.40 / aq=1:1.00
Default : Yes
Forced : No
Color range : Limited
Color primaries : BT.709
Transfer characteristics : BT.709
Matrix coefficients : BT.709
DURATION : 02:59:24.771000000
NUMBER_OF_FRAMES : 258096
NUMBER_OF_BYTES : 8682980598
_STATISTICS_WRITING_APP : mkvmerge v9.2.0 ('Photograph') 32bit
_STATISTICS_WRITING_DATE_UTC : 2016-07-25 20:19:53
_STATISTICS_TAGS : BPS DURATION NUMBER_OF_FRAMES NUMBER_OF_BYTES

Audio #1
ID : 2
Format : AC-3
Format/Info : Audio Coding 3
Mode extension : CM (complete main)
Format settings, Endianness : Big
Codec ID : A_AC3
Duration : 2h 59mn
Bit rate mode : Constant
Bit rate : 640 Kbps
Channel(s) : 6 channels
Channel positions : Front: L C R, Side: L R, LFE
Sampling rate : 48.0 KHz
Compression mode : Lossy
Delay relative to video : -83ms
Stream size : 821 MiB (7%)
Title : Latino
Default : No
Forced : Yes
DURATION : 02:59:25.750000000
NUMBER_OF_FRAMES : 1009289
NUMBER_OF_BYTES : 2030689468
_STATISTICS_WRITING_APP : mkvmerge v9.2.0 ('Photograph') 32bit
_STATISTICS_WRITING_DATE_UTC : 2016-07-25 20:19:53
_STATISTICS_TAGS : BPS DURATION NUMBER_OF_FRAMES NUMBER_OF_BYTES

Audio #2
ID : 3
Format : DTS
Format/Info : Digital Theater Systems
Format profile : ES
Mode : 16
Format settings, Endianness : Big
Codec ID : A_DTS
Duration : 2h 59mn
Bit rate mode : Constant
Bit rate : 1 509 Kbps
Channel(s) : 6 channels
Channel positions : Front: L C R, Side: L R, LFE
Sampling rate : 48.0 KHz
Bit depth : 24 bits
Compression mode : Lossy
Stream size : 1.89 GiB (18%)
Title : Ingles
Language : English
Default : No
Forced : No
DURATION : 02:58:01.171000000
NUMBER_OF_FRAMES : 3060
NUMBER_OF_BYTES : 11394666
_STATISTICS_WRITING_APP : mkvmerge v9.2.0 ('Photograph') 32bit
_STATISTICS_WRITING_DATE_UTC : 2016-07-25 20:19:53
_STATISTICS_TAGS : BPS DURATION NUMBER_OF_FRAMES NUMBER_OF_BYTES

Text #1
ID : 4
Format : UTF-8
Codec ID : S_TEXT/UTF8
Codec ID/Info : UTF-8 Plain Text
Title : Subs Español
Default : Yes
Forced : No

Text #2
ID : 5
Format : UTF-8
Codec ID : S_TEXT/UTF8
Codec ID/Info : UTF-8 Plain Text
Title : Forzados
Default : No
Forced : Yes

Text #3
ID : 6
Format : PGS
Muxing mode : zlib
Codec ID : S_HDMV/PGS
Codec ID/Info : Picture based subtitle format used on BDs/HD-DVDs
Language : Spanish
Default : No
Forced : No

Menu
00:00:00.000 : :Chapter 1
00:04:08.807 : :Chapter 2
00:11:32.250 : :Chapter 3
00:12:17.795 : :Chapter 4
00:14:27.300 : :Chapter 5
00:17:30.650 : :Chapter 6
00:20:18.692 : :Chapter 7
00:21:12.830 : :Chapter 8
00:24:11.175 : :Chapter 9
00:28:19.131 : :Chapter 10
00:30:50.866 : :Chapter 11
00:34:19.783 : :Chapter 12
00:41:18.701 : :Chapter 13
00:46:55.371 : :Chapter 14
00:47:35.536 : :Chapter 15
00:52:53.228 : :Chapter 16
01:04:21.749 : :Chapter 17
01:06:14.529 : :Chapter 18
01:09:25.303 : :Chapter 19
01:10:51.347 : :Chapter 20
01:11:55.953 : :Chapter 21
01:13:38.597 : :Chapter 22
01:16:09.081 : :Chapter 23
01:20:36.098 : :Chapter 24
01:21:32.487 : :Chapter 25
01:26:01.506 : :Chapter 26
01:32:39.362 : :Chapter 27
01:35:06.009 : :Chapter 28
01:37:42.498 : :Chapter 29
01:39:22.139 : :Chapter 30
01:43:02.818 : :Chapter 31
01:45:28.797 : :Chapter 32
01:48:24.515 : :Chapter 33
01:55:44.913 : :Chapter 34
02:01:18.162 : :Chapter 35
02:02:38.034 : :Chapter 36
02:04:36.277 : :Chapter 37
02:06:21.007 : :Chapter 38
02:09:53.427 : :Chapter 39
02:16:09.386 : :Chapter 40
02:17:48.735 : :Chapter 41
02:21:13.565 : :Chapter 42
02:22:58.712 : :Chapter 43
02:28:55.652 : :Chapter 44
02:30:20.445 : :Chapter 45
02:30:55.188 : :Chapter 46
02:33:11.407 : :Chapter 47
02:35:43.392 : :Chapter 48
02:40:21.837 : :Chapter 49
02:42:50.027 : :Chapter 50
02:47:36.354 : :Chapter 51
02:49:16.037 : :Chapter 52
02:51:42.559 : :Chapter 53

Download Links

CONTRASEÑA PARA DESCOMPRIMIR

APORTES NUEVOS

cinemaniahdd.com

APORTES VIEJOS

CinemaniaHD.org

COMPRA O RENUEVA TU PREMIUM DE UPLOADED DESDE EL SIGUIENTE LINK:

http://ul.to/ref/9821430

SI GUSTAS PUEDES SEGUIRNOS EN LAS REDES SOCIALES

Facebook

Twitter

Post Relacionados