Actualmente tenemos 3088 peliculas en nuestro sitio.

Epic: El reino secreto (2013) 1080p WEB-DL Dual

Epic_El_reino_secreto-587748115-large

Ficha

Titulo Original: Epic

1080p | 1912x796 | MKV | H.264 | Encoder by: CinemaniaHD | AC3 2.0 | 1.7 GB | 1:42:56 min | Audio: Español Latino - Ingles  | Subtitulos: No | Animacion. Aventuras | 2013 | 5% Registro de Recuperacion (Reparar Rar dañados)

MediaInfo:

[spoiler]

General

Format : Matroska
Format version : Version 4 / Version 2
File size : 1.73 GiB
Duration : 1h 42mn
Overall bit rate : 2 400 Kbps
Movie name : Epic [2013] [1080p Dual] [wWw.CinemaniaHD.org]
Encoded date : UTC 2013-08-07 00:59:15
Writing application : mkvmerge v6.1.0 ('Old Devil') built on Mar 2 2013 14:32:37
Writing library : libebml v1.3.0 + libmatroska v1.4.0

Video
ID : 1
Format : AVC
Format/Info : Advanced Video Codec
Format profile : [email protected]
Format settings, CABAC : Yes
Format settings, ReFrames : 4 frames
Codec ID : V_MPEG4/ISO/AVC
Duration : 1h 42mn
Bit rate : 1 635 Kbps
Width : 1 912 pixels
Height : 796 pixels
Display aspect ratio : 2.40:1
Frame rate mode : Constant
Frame rate : 23.976 fps
Color space : YUV
Chroma subsampling : 4:2:0
Bit depth : 8 bits
Scan type : Progressive
Bits/(Pixel*Frame) : 0.045
Stream size : 1.14 GiB (66%)
Title : wWw.CinemaniaHD.org
Writing library : x264 core 133 r2334 a3ac64b
Encoding settings : cabac=1 / ref=3 / deblock=1:0:0 / analyse=0x3:0x113 / me=hex / subme=7 / psy=1 / psy_rd=1.00:0.00 / mixed_ref=1 / me_range=16 / chroma_me=1 / trellis=1 / 8x8dct=1 / cqm=0 / deadzone=21,11 / fast_pskip=1 / chroma_qp_offset=-2 / threads=12 / lookahead_threads=2 / sliced_threads=0 / nr=0 / decimate=1 / interlaced=0 / bluray_compat=0 / constrained_intra=0 / bframes=3 / b_pyramid=2 / b_adapt=1 / b_bias=0 / direct=1 / weightb=1 / open_gop=0 / weightp=2 / keyint=240 / keyint_min=23 / scenecut=40 / intra_refresh=0 / rc_lookahead=40 / rc=2pass / mbtree=1 / bitrate=1635 / ratetol=1.0 / qcomp=0.60 / qpmin=0 / qpmax=69 / qpstep=4 / cplxblur=20.0 / qblur=0.5 / ip_ratio=1.40 / aq=1:1.00
Default : Yes
Forced : No

Audio #1
ID : 2
Format : AC-3
Format/Info : Audio Coding 3
Mode extension : CM (complete main)
Format settings, Endianness : Big
Codec ID : A_AC3
Duration : 1h 42mn
Bit rate mode : Constant
Bit rate : 384 Kbps
Channel(s) : 2 channels
Channel positions : Front: L R
Sampling rate : 48.0 KHz
Bit depth : 16 bits
Compression mode : Lossy
Stream size : 283 MiB (16%)
Title : Español Latino [wWw.CinemaniaHD.org]
Default : Yes
Forced : No

Audio #2
ID : 3
Format : AC-3
Format/Info : Audio Coding 3
Mode extension : CM (complete main)
Format settings, Endianness : Big
Codec ID : A_AC3
Duration : 1h 42mn
Bit rate mode : Constant
Bit rate : 384 Kbps
Channel(s) : 6 channels
Channel positions : Front: L C R, Side: L R, LFE
Sampling rate : 48.0 KHz
Bit depth : 16 bits
Compression mode : Lossy
Stream size : 283 MiB (16%)
Title : Ingles [wWw.CinemaniaHD.org]
Default : No
Forced : No

Text
ID : 4
Format : UTF-8
Codec ID : S_TEXT/UTF8
Codec ID/Info : UTF-8 Plain Text
Title : wWw.CinemaniaHD.org
Default : No
Forced : No

 

[/spoiler]

Sinopsis

Un grupo de bichos intentan salvar un jardín y enfrentarse a una diabólica araña, buscando para ello la ayuda de los míticos Hombres Hoja.

Capturas

Trailer

http://www.youtube.com/watch?v=-xu3JLXfuwQ

DESCARGAR

[ocultar]

Links Intercambiables

BillonUploads - 4Shared - PutLocker - Mega - Freakshare - Uploaded.to - Uptobox

Links

LINKS DIRECTOS MEGA Y PUTLOCKER >Usuaios V.I.P.

Links

PASSWORD

CinemaniaHD.org

[/ocultar]

Post Relacionados