Actualmente tenemos 4570 para descargar peliculas gratis 1080p latino

Escalofríos (2015) 1080p x265 HEVC Latino – Inglés

Un adolescente llamado Zach Cooper se cambia de casa sin muchas ganas con su familia desde Nueva York al pequeño pueblo de Greendale. Allí encuentra un resquicio de ilusión cuando conoce a su vecina, la guapa Hannah, y hace un amigo: Champ. También se entera de que el padre de Hannah es RL Stine, autor del Bestseller de la serie “Pesadillas”. Pero el chico Zach descubre que Stine tiene un secreto: las criaturas de sus historias son reales, y las mantiene encerradas en unos libros. Luego todos los demonios de Stine son liberados involuntariamente de sus libros, Zach, Hannah, Champ y el propio Stine, en una alocada noche llena de aventuras, tendrán que formar equipo y atrapar a todas las criaturas de la imaginación de Stine para devolverlos a los libros donde pertenecen, con el fin de salvar la ciudad.



Titulo Original Goosebumps
Año 2015
Duracion 103 min.
Guion
Director Rob Letterman
Musica Danny Elfman
Photografia Javier Aguirresarobe
Reparto Dylan Minnette, Odeya Rush, Amy Ryan, Jillian Bell, Jack Black, Ryan Lee, Steven Krueger, Larry Mainland, Jeremy Ambler, Ken Marino, Halston Sage
Productora Dylan Minnette, Odeya Rush, Amy Ryan, Jillian Bell, Jack Black, Ryan Lee, Steven Krueger, Larry Mainland, Jeremy Ambler, Ken Marino, Halston Sage
Genero
Titulo original Goosebumps (2015) 1080p x265 HEVC Latino – Inglés
Titulo Latino Escalofríos (2015) 1080p x265 HEVC Latino – Inglés
Otros Titulos Pesadillas (2015) 1080p x265 HEVC Latino – Inglés
Audio Español Latino [AC3 5.1 BD] - Inglés [AC3 5.1 BD]
Calidad: FULL HD 1080p Resolucion: 1920x1080p Formato: MKV
Codec: x265 HEVC Encoder: Papelillio Peso: 2.53 GB
Subtitulos: Español Latino [.SRT + .PGS] Duracion: 01:43:16 Capitulos:
  • No hay video embed hola

General
Complete name                  : Goosebumps.2015.1080p.BluRay.x265.HEVC.Dual.Latino-Papelillio.mkv
Format                         : Matroska
Format version                 : Version 4 / Version 2
File size                      : 2.53 GiB
Duration                       : 1h 43mn
Overall bit rate               : 3 506 Kbps
Encoded date                   : UTC 2016-01-12 18:20:14
Writing application            : mkvmerge v7.9.0 ('Birds') 64bit
Writing library                : libebml v1.3.1 + libmatroska v1.4.2

Video
ID                             : 1
Format                         : HEVC
Format/Info                    : High Efficiency Video Coding
Format profile                 : Main@L4@Main
Codec ID                       : V_MPEGH/ISO/HEVC
Duration                       : 1h 43mn
Bit rate                       : 2 211 Kbps
Width                          : 1 920 pixels
Height                         : 1 080 pixels
Display aspect ratio           : 16:9
Frame rate mode                : Constant
Frame rate                     : 23.976 (24000/1001) fps
Color space                    : YUV
Chroma subsampling             : 4:2:0
Bit depth                      : 8 bits
Bits/(Pixel*Frame)             : 0.044
Stream size                    : 1.60 GiB (63%)
Title                          : Fuente Encodeo: BD50 - Papelillio
Writing library                : x265 1.5:[Windows][GCC 4.9.0][64 bit]
Encoding settings              : wpp / ctu=64 / tu-intra-depth=1 / tu-inter-depth=1 / me=3 / subme=3 / merange=57 / rect / no-amp / max-merge=3 / temporal-mvp / no-early-skip / no-fast-cbf / rdpenalty=0 / no-tskip / no-tskip-fast / strong-intra-smoothing / no-lossless / no-cu-lossless / no-constrained-intra / no-fast-intra / open-gop / interlace=0 / keyint=240 / min-keyint=24 / scenecut=40 / rc-lookahead=25 / bframes=4 / bframe-bias=0 / b-adapt=2 / ref=3 / weightp / no-weightb / aq-mode=1 / aq-strength=1.00 / cbqpoffs=0 / crqpoffs=0 / rd=4 / psy-rd=0.30 / psy-rdoq=1.00 / signhide / lft / sao / no-sao-non-deblock / b-pyramid / cutree / rc=crf / crf=19.0 / qcomp=0.60 / qpmin=0 / qpmax=51 / qpstep=4 / ipratio=1.40 / pbratio=1.30
Default                        : Yes
Forced                         : No
Color range                    : Limited
Color primaries                : BT.709
Transfer characteristics       : BT.709
Matrix coefficients            : BT.709

Audio #1
ID                             : 2
Format                         : AC-3
Format/Info                    : Audio Coding 3
Mode extension                 : CM (complete main)
Format settings, Endianness    : Big
Codec ID                       : A_AC3
Duration                       : 1h 43mn
Bit rate mode                  : Constant
Bit rate                       : 640 Kbps
Channel(s)                     : 6 channels
Channel positions              : Front: L C R, Side: L R, LFE
Sampling rate                  : 48.0 KHz
Frame rate                     : 31.250 fps (1536 spf)
Compression mode               : Lossy
Stream size                    : 473 MiB (18%)
Title                          : Audio Español Latino @640Kbps - Papelillio
Language                       : Spanish
Default                        : Yes
Forced                         : No

Audio #2
ID                             : 3
Format                         : AC-3
Format/Info                    : Audio Coding 3
Mode extension                 : CM (complete main)
Format settings, Endianness    : Big
Codec ID                       : A_AC3
Duration                       : 1h 43mn
Bit rate mode                  : Constant
Bit rate                       : 640 Kbps
Channel(s)                     : 6 channels
Channel positions              : Front: L C R, Side: L R, LFE
Sampling rate                  : 48.0 KHz
Frame rate                     : 31.250 fps (1536 spf)
Compression mode               : Lossy
Stream size                    : 473 MiB (18%)
Title                          : Audio Inglés @640Kbps - Papelillio
Language                       : English
Default                        : No
Forced                         : No

Text #1
ID                             : 4
Format                         : UTF-8
Codec ID                       : S_TEXT/UTF8
Codec ID/Info                  : UTF-8 Plain Text
Duration                       : 14mn 27s
Bit rate                       : 1 bps
Count of elements              : 4
Stream size                    : 119 Bytes (0%)
Title                          : Subtítulos Español Latino - Forzados (SRT) - Papelillio
Language                       : Spanish
Default                        : Yes
Forced                         : No

Text #2
ID                             : 5
Format                         : UTF-8
Codec ID                       : S_TEXT/UTF8
Codec ID/Info                  : UTF-8 Plain Text
Duration                       : 1h 33mn
Bit rate                       : 52 bps
Count of elements              : 1359
Stream size                    : 36.2 KiB (0%)
Title                          : Subtítulos Español Latino (SRT) - Papelillio
Language                       : Spanish
Default                        : No
Forced                         : No

Text #3
ID                             : 6
Format                         : PGS
Muxing mode                    : zlib
Codec ID                       : S_HDMV/PGS
Codec ID/Info                  : Picture based subtitle format used on BDs/HD-DVDs
Duration                       : 1h 41mn
Bit rate                       : 12.8 Kbps
Count of elements              : 2722
Stream size                    : 9.29 MiB (0%)
Title                          : Subtítulos Español Latino (PGS) - Papelillio
Language                       : Spanish
Default                        : No
Forced                         : No

Download Links

CONTRASEÑA PARA DESCOMPRIMIR

APORTES NUEVOS

cinemaniahdd.com

APORTES VIEJOS

CinemaniaHD.org

COMPRA O RENUEVA TU PREMIUM DE UPLOADED DESDE EL SIGUIENTE LINK:

http://ul.to/ref/9821430

SI GUSTAS PUEDES SEGUIRNOS EN LAS REDES SOCIALES

Facebook

Twitter

Post Relacionados