Actualmente tenemos 4567 para descargar peliculas gratis 1080p latino

Fenomenos de la Naturaleza (2015) 1080p FULL HD Dual Latino

En Dillford (Ohio) hace tres días todo estaba tranquilo y se mantenía el estatus de siempre: los vampiros estaban en la parte superior del orden social, los zombis eran en la parte inferior, y los seres humanos se quedaban en el medio. Pero este delicado equilibrio se ve destrozado cuando el apocalipsis alienígena llega a Dillford y pone fin a toda la armonía. Ahora es el humano contra vampiros contra zombies, y todos ellos están en contra de los alienígenas. Corresponde a tres adolescentes —un humano, un vampiro y un zombie— que hacen equipo, y deben encontrar la manera de deshacerse de los visitantes interplanetarios, y tratar de restablecer el orden en esta pequeña ciudad “normal”.



Titulo Original Freaks of Nature
Año 2015
Duracion 92 min.
Guion
Director Robbie Pickering
Musica Uta Briesewitz
Photografia Uta Briesewitz
Reparto Mackenzie Davis, Ed Westwick, Vanessa Hudgens, Keegan-Michael Key, Joan Cusack, Bob Odenkirk, Denis Leary, Cerina Vincent
Productora Mackenzie Davis, Ed Westwick, Vanessa Hudgens, Keegan-Michael Key, Joan Cusack, Bob Odenkirk, Denis Leary, Cerina Vincent
Genero
Titulo original Freaks of Nature (2015) 1080p FULL HD Dual Latino
Titulo Latino Fenomenos de la Naturaleza (2015) 1080p FULL HD Dual Latino
Otros Titulos Éramos pocos y llegaron los aliens (2015) 1080p FULL HD Dual Latino
Audio Español Latino [AC3 5.1 BD] - Inglés [DTS 5.1 BD]
Calidad: FULL HD 1080p Resolucion: 1920x1080p Formato: MKV
Codec: H.264 Encoder: ADDKiQ Peso: 8.8 GB
Subtitulos: Español Latino [PGS] - Ingles [PGS] Duracion: 92 min. Capitulos:
  • No hay video embed hola

General
Unique ID : 248276563468577655800229922463523184844 (0xBAC853A9A5D2B7FDAB953355A10EA0CC)
Complete name : P:\Video\Video\FREAKS_OF_NATURE\Fenomenos de la naturaleza P3S4D4.mkv
Format : Matroska
Format version : Version 2
File size : 8.82 GiB
Duration : 1h 32mn
Overall bit rate : 13.6 Mbps
Movie name : FREAKS_OF_NATURE_–.Title1
Encoded date : UTC 2016-02-04 02:13:46
Writing application : DVDFab 9.2.2.4
Writing library : libebml v0.7.8 + libmatroska v0.8.1

Video
ID : 1
Format : AVC
Format/Info : Advanced Video Codec
Format profile : High@L4.1
Format settings, CABAC : Yes
Format settings, ReFrames : 2 frames
Codec ID : V_MPEG4/ISO/AVC
Duration : 1h 32mn
Bit rate : 11.2 Mbps
Width : 1 920 pixels
Height : 1 080 pixels
Display aspect ratio : 16:9
Frame rate mode : Constant
Frame rate : 23.976 (24000/1001) fps
Color space : YUV
Chroma subsampling : 4:2:0
Bit depth : 8 bits
Scan type : Progressive
Bits/(Pixel*Frame) : 0.226
Stream size : 7.25 GiB (82%)
Writing library : x264 core 142
Encoding settings : cabac=1 / ref=1 / deblock=1:-1:-1 / analyse=0x3:0 / me=hex / subme=5 / psy=0 / mixed_ref=0 / me_range=16 / chroma_me=1 / trellis=0 / 8x8dct=1 / cqm=0 / deadzone=21,11 / fast_pskip=1 / chroma_qp_offset=0 / threads=24 / lookahead_threads=6 / sliced_threads=0 / nr=0 / decimate=1 / interlaced=0 / bluray_compat=0 / constrained_intra=0 / bframes=2 / b_pyramid=0 / b_adapt=1 / b_bias=0 / direct=1 / weightb=1 / open_gop=0 / weightp=0 / keyint=24 / keyint_min=13 / scenecut=40 / intra_refresh=0 / rc=crf / mbtree=0 / crf=20.0 / qcomp=0.60 / qpmin=0 / qpmax=69 / qpstep=4 / ip_ratio=1.40 / pb_ratio=1.30 / aq=1:1.00
Default : Yes
Forced : No
Color range : Limited
Color primaries : BT.709
Transfer characteristics : BT.709
Matrix coefficients : BT.709

Audio #1
ID : 2
Format : AC-3
Format/Info : Audio Coding 3
Mode extension : CM (complete main)
Format settings, Endianness : Big
Codec ID : A_AC3
Duration : 1h 32mn
Bit rate mode : Constant
Bit rate : 640 Kbps
Channel(s) : 6 channels
Channel positions : Front: L C R, Side: L R, LFE
Sampling rate : 48.0 KHz
Frame rate : 31.250 fps (1536 spf)
Compression mode : Lossy
Stream size : 424 MiB (5%)
Language : Spanish
Default : Yes
Forced : No

Audio #2
ID : 3
Format : DTS
Format/Info : Digital Theater Systems
Mode : 16
Format settings, Endianness : Big
Codec ID : A_DTS
Duration : 1h 32mn
Bit rate mode : Constant
Bit rate : 1 509 Kbps
Channel(s) : 6 channels
Channel positions : Front: L C R, Side: L R, LFE
Sampling rate : 48.0 KHz
Frame rate : 93.750 fps (512 spf)
Bit depth : 16 bits
Compression mode : Lossy
Stream size : 999 MiB (11%)
Language : English
Default : No
Forced : No

Text #1
ID : 4
Format : PGS
Codec ID : S_HDMV/PGS
Codec ID/Info : Picture based subtitle format used on BDs/HD-DVDs
Language : English
Default : No
Forced : No

Text #2
ID : 5
Format : PGS
Codec ID : S_HDMV/PGS
Codec ID/Info : Picture based subtitle format used on BDs/HD-DVDs
Language : Spanish
Default : No
Forced : No

Text #3
ID : 6
Format : PGS
Codec ID : S_HDMV/PGS
Codec ID/Info : Picture based subtitle format used on BDs/HD-DVDs
Language : English
Default : No
Forced : No

Text #4
ID : 7
Format : PGS
Codec ID : S_HDMV/PGS
Codec ID/Info : Picture based subtitle format used on BDs/HD-DVDs
Language : Spanish
Default : No
Forced : No

Menu
00:00:00.000 : en:(01)00:00:00:000
00:02:47.917 : en:(02)00:02:47:917
00:08:05.193 : en:(03)00:08:05:193
00:16:22.898 : en:(04)00:16:22:898
00:20:46.411 : en:(05)00:20:46:411
00:26:36.886 : en:(06)00:26:36:886
00:30:45.468 : en:(07)00:30:45:468
00:34:58.137 : en:(08)00:34:58:137
00:42:08.859 : en:(09)00:42:08:859
00:48:36.914 : en:(10)00:48:36:914
00:53:13.148 : en:(11)00:53:13:148
00:58:32.133 : en:(12)00:58:32:133
01:04:02.296 : en:(13)01:04:02:296
01:08:30.397 : en:(14)01:08:30:397
01:16:03.392 : en:(15)01:16:03:392
01:23:48.273 : en:(16)01:23:48:273

Download Links

CONTRASEÑA PARA DESCOMPRIMIR

APORTES NUEVOS

cinemaniahdd.com

APORTES VIEJOS

CinemaniaHD.org

COMPRA O RENUEVA TU PREMIUM DE UPLOADED DESDE EL SIGUIENTE LINK:

http://ul.to/ref/9821430

SI GUSTAS PUEDES SEGUIRNOS EN LAS REDES SOCIALES

Facebook

Twitter

Post Relacionados