Actualmente tenemos 4567 para descargar peliculas gratis 1080p latino

Frecuencia Mortal (2001) 1080p BluRay x265 HEVC DTS Dual Latino

joy-ride-265
Han empezado las vacaciones y Lewis está listo para marcharse en coche con Venna, la chica de sus sueños, que acaba de romper con su novio. Pero sus planes se van al garete cuando tiene que desviarse para recoger a Fuller, su hermano mayor, famoso por meterse en líos, que ha vuelto a hacer de las suyas.


Titulo Original Joy Ride
Año 2001-10-05
Duracion 97
Guion Clay Tarver, J.J. Abrams
Director John Dahl
Musica
Photografia
Reparto Steve Zahn, Paul Walker, Leelee Sobieski, Jessica Bowman
Productora Regency Enterprises, Epsilon Motion Pictures, LivePlanet, New Regency Pictures, Bad Robot,
Genero Misterio, Suspense, Drama,
Titulo original Joy Ride
Titulo Latino Frecuencia Mortal
Otros Titulos Nunca Juegues Con Extraños
Audio Español Latino AC3 2.0 - Inglés DTS 5.1
Calidad: FULL HD 1080p Resolucion: 1920x1080 Formato: MKV
Codec: H.265 Encoder: SebastianHDx Peso: 3.02 GB
Subtitulos: Español Latino [PGS] Duracion: 1h 37min Capitulos:
  • No hay video embed hola

Frecuencia Mortal (2001) 1080p BluRay x265 HEVC DTS Dual Latino.mkv
Format : Matroska
Format version : Version 4 / Version 2
File size : 3.02 GiB
Duration : 1h 37mn
Overall bit rate : 4 459 Kbps
Encoded date : UTC 2016-12-28 00:41:55
Writing application : mkvmerge v8.6.1 ('Flying') 64bit
Writing library : libebml v1.3.3 + libmatroska v1.4.4
DURATION : 01:31:46.082000000
NUMBER_OF_FRAMES : 1970
NUMBER_OF_BYTES : 19684779
_STATISTICS_WRITING_APP : mkvmerge v8.6.1 ('Flying') 64bit
_STATISTICS_WRITING_DATE_UT : 2016-12-28 00:41:55
_STATISTICS_TAGS : BPS DURATION NUMBER_OF_FRAMES NUMBER_OF_BYTES

Video
ID : 1
Format : HEVC
Format/Info : High Efficiency Video Coding
Format profile : Main@L4@Main
Codec ID : V_MPEGH/ISO/HEVC
Duration : 1h 37mn
Bit rate : 2 637 Kbps
Width : 1 920 pixels
Height : 1 080 pixels
Display aspect ratio : 16:9
Frame rate mode : Constant
Frame rate : 23.976 fps
Color space : YUV
Chroma subsampling : 4:2:0
Bit depth : 8 bits
Bits/(Pixel*Frame) : 0.053
Stream size : 1.79 GiB (59%)
Writing library : x265 1.9:[Windows][GCC 4.9.0][64 bit] 8bit
Encoding settings : wpp / ctu=64 / min-cu-size=8 / max-tu-size=32 / tu-intra-depth=1 / tu-inter-depth=1 / me=3 / subme=3 / merange=57 / rect / no-amp / max-merge=3 / temporal-mvp / no-early-skip / rdpenalty=0 / no-tskip / no-tskip-fast / strong-intra-smoothing / no-lossless / no-cu-lossless / no-constrained-intra / no-fast-intra / open-gop / no-temporal-layers / interlace=0 / keyint=240 / min-keyint=24 / scenecut=40 / rc-lookahead=25 / lookahead-slices=4 / bframes=4 / bframe-bias=0 / b-adapt=2 / ref=4 / limit-refs=3 / limit-modes / weightp / no-weightb / aq-mode=1 / qg-size=32 / aq-strength=1.00 / cbqpoffs=0 / crqpoffs=0 / rd=4 / psy-rd=2.00 / rdoq-level=2 / psy-rdoq=1.00 / signhide / deblock / sao / no-sao-non-deblock / b-pyramid / cutree / no-intra-refresh / rc=crf / crf=20.0 / qcomp=0.60 / qpmin=0 / qpmax=51 / qpstep=4 / ipratio=1.40 / pbratio=1.30
Default : Yes
Forced : No
Color range : Limited
Color primaries : BT.709
Transfer characteristics : BT.709
Matrix coefficients : BT.709
DURATION : 01:37:07.072000000
NUMBER_OF_FRAMES : 139709
NUMBER_OF_BYTES : 1964004298
_STATISTICS_WRITING_APP : mkvmerge v8.6.1 ('Flying') 64bit
_STATISTICS_WRITING_DATE_UT : 2016-12-28 00:41:55
_STATISTICS_TAGS : BPS DURATION NUMBER_OF_FRAMES NUMBER_OF_BYTES

Audio #1
ID : 2
Format : AC-3
Format/Info : Audio Coding 3
Format profile : Dolby Digital
Mode extension : CM (complete main)
Format settings, Endianness : Big
Codec ID : A_AC3
Duration : 1h 37mn
Bit rate mode : Constant
Bit rate : 224 Kbps
Channel(s) : 2 channels
Channel positions : Front: L R
Sampling rate : 48.0 KHz
Compression mode : Lossy
Delay relative to video : -83ms
Stream size : 156 MiB (5%)
Title : Español Latino AC3 2.0 [224 Kbps]
Language : Spanish
Default : Yes
Forced : No

Audio #2
ID : 3
Format : DTS
Format/Info : Digital Theater Systems
Mode : 16
Format settings, Endianness : Big
Codec ID : A_DTS
Duration : 1h 37mn
Bit rate mode : Constant
Bit rate : 1 509 Kbps
Channel(s) : 6 channels
Channel positions : Front: L C R, Side: L R, LFE
Sampling rate : 48.0 KHz
Bit depth : 24 bits
Compression mode : Lossy
Delay relative to video : -83ms
Stream size : 1.02 GiB (34%)
Title : Inglés DTS 5.1 [1509 Kbps]
Language : English
Default : No
Forced : No

Text
ID : 4
Format : PGS
Codec ID : S_HDMV/PGS
Codec ID/Info : Picture based subtitle format used on BDs/HD-DVDs
Title : Subtítulos Español Latino [PGS]
Language : Spanish
Default : No
Forced : No

Menu
00:00:00.000 : :Chapter 1
00:01:53.196 : :Chapter 2
00:03:49.270 : :Chapter 3
00:06:03.488 : :Chapter 4
00:10:04.896 : :Chapter 5
00:11:40.199 : :Chapter 6
00:15:52.910 : :Chapter 7
00:17:21.790 : :Chapter 8
00:21:27.995 : :Chapter 9
00:25:58.598 : :Chapter 10
00:31:03.695 : :Chapter 11
00:36:08.458 : :Chapter 12
00:39:22.068 : :Chapter 13
00:42:22.289 : :Chapter 14
00:48:36.455 : :Chapter 15
00:50:40.912 : :Chapter 16
00:54:37.274 : :Chapter 17
00:58:30.465 : :Chapter 18
01:00:51.814 : :Chapter 19
01:02:46.429 : :Chapter 20
01:04:39.584 : :Chapter 21
01:08:00.534 : :Chapter 22
01:12:18.125 : :Chapter 23
01:15:57.761 : :Chapter 24
01:18:10.143 : :Chapter 25
01:24:02.912 : :Chapter 26
01:25:54.190 : :Chapter 27
01:29:02.670 : :Chapter 28
01:31:40.703 : :Chapter 29
01:33:05.371 : :Chapter 30

Download Links

CONTRASEÑA PARA DESCOMPRIMIR

APORTES NUEVOS

cinemaniahdd.com

APORTES VIEJOS

CinemaniaHD.org

COMPRA O RENUEVA TU PREMIUM DE UPLOADED DESDE EL SIGUIENTE LINK:

http://ul.to/ref/9821430

SI GUSTAS PUEDES SEGUIRNOS EN LAS REDES SOCIALES

Facebook

Twitter

Post Relacionados