Actualmente tenemos 4567 para descargar peliculas gratis 1080p latino

Identidad (2003) 1080p BluRay x265 HEVC Dual Latino

identity-265
Diez extraños se ven atrapados por una terrible tormenta: un conductor de limusinas, una estrella de televisión de los años 80, un policía que escolta a un asesino, una prostituta, una pareja de recién casados y una familia en crisis; todos se cobijan en un lúgubre motel. Pero el alivio de haber encontrado refugio pronto se ve sustituido por el miedo cuando los diez viajeros empiezan a morir un por uno. Si quieren sobrevivir, tendrán que descubrir el secreto que les ha reunido en ese lugar.


Titulo Original Identity
Año 2003-04-25
Duracion 90
Guion Michael Cooney
Director James Mangold
Musica
Photografia
Reparto John Cusack, Ray Liotta, Amanda Peet, John Hawkes
Productora Konrad Pictures, Columbia Pictures Corporation,
Genero Misterio, Suspense,
Titulo original Identity
Titulo Latino Identidad
Otros Titulos
Audio Español Latino AC3 5.1 - Inglés AC3 5.1
Calidad: FULL HD 1080p Resolucion: 1920x1080 Formato: MKV
Codec: H.265 Encoder: SebastianHDx Peso: 2.54 GB
Subtitulos: Español Latino [PGS] - Forzados [SRT] Duracion: 1h 30min Capitulos:
  • No hay video embed hola

Identidad (2003) 1080p BluRay x265 HEVC Dual Latino.mkv
Format : Matroska
Format version : Version 4 / Version 2
File size : 2.54 GiB
Duration : 1h 30mn
Overall bit rate : 4 033 Kbps
Encoded date : UTC 2016-12-29 00:02:28
Writing application : mkvmerge v8.6.1 ('Flying') 64bit
Writing library : libebml v1.3.3 + libmatroska v1.4.4
DURATION : 00:01:22.290000000
NUMBER_OF_FRAMES : 5
NUMBER_OF_BYTES : 138
_STATISTICS_WRITING_APP : mkvmerge v8.6.1 ('Flying') 64bit
_STATISTICS_WRITING_DATE_UT : 2016-12-29 00:02:28
_STATISTICS_TAGS : BPS DURATION NUMBER_OF_FRAMES NUMBER_OF_BYTES

Video
ID : 1
Format : HEVC
Format/Info : High Efficiency Video Coding
Format profile : Main@L4@Main
Codec ID : V_MPEGH/ISO/HEVC
Duration : 1h 30mn
Bit rate : 2 673 Kbps
Width : 1 920 pixels
Height : 1 080 pixels
Display aspect ratio : 16:9
Frame rate mode : Constant
Frame rate : 23.976 fps
Color space : YUV
Chroma subsampling : 4:2:0
Bit depth : 8 bits
Bits/(Pixel*Frame) : 0.054
Stream size : 1.68 GiB (66%)
Writing library : x265 1.9:[Windows][GCC 4.9.0][64 bit] 8bit
Encoding settings : wpp / ctu=64 / min-cu-size=8 / max-tu-size=32 / tu-intra-depth=1 / tu-inter-depth=1 / me=3 / subme=3 / merange=57 / rect / no-amp / max-merge=3 / temporal-mvp / no-early-skip / rdpenalty=0 / no-tskip / no-tskip-fast / strong-intra-smoothing / no-lossless / no-cu-lossless / no-constrained-intra / no-fast-intra / open-gop / no-temporal-layers / interlace=0 / keyint=240 / min-keyint=24 / scenecut=40 / rc-lookahead=25 / lookahead-slices=4 / bframes=4 / bframe-bias=0 / b-adapt=2 / ref=4 / limit-refs=3 / limit-modes / weightp / no-weightb / aq-mode=1 / qg-size=32 / aq-strength=1.00 / cbqpoffs=0 / crqpoffs=0 / rd=4 / psy-rd=2.00 / rdoq-level=2 / psy-rdoq=1.00 / signhide / deblock / sao / no-sao-non-deblock / b-pyramid / cutree / no-intra-refresh / rc=crf / crf=20.0 / qcomp=0.60 / qpmin=0 / qpmax=51 / qpstep=4 / ipratio=1.40 / pbratio=1.30
Default : Yes
Forced : No
Color range : Limited
Color primaries : BT.709
Transfer characteristics : BT.709
Matrix coefficients : BT.709
DURATION : 01:30:02.397000000
NUMBER_OF_FRAMES : 129528
NUMBER_OF_BYTES : 1840479836
_STATISTICS_WRITING_APP : mkvmerge v8.6.1 ('Flying') 64bit
_STATISTICS_WRITING_DATE_UT : 2016-12-29 00:02:28
_STATISTICS_TAGS : BPS DURATION NUMBER_OF_FRAMES NUMBER_OF_BYTES

Audio #1
ID : 2
Format : AC-3
Format/Info : Audio Coding 3
Mode extension : CM (complete main)
Format settings, Endianness : Big
Codec ID : A_AC3
Duration : 1h 30mn
Bit rate mode : Constant
Bit rate : 640 Kbps
Channel(s) : 6 channels
Channel positions : Front: L C R, Side: L R, LFE
Sampling rate : 48.0 KHz
Compression mode : Lossy
Delay relative to video : -83ms
Stream size : 412 MiB (16%)
Title : Español Latino AC3 5.1 [640 Kbps]
Language : Spanish
Default : Yes
Forced : No

Audio #2
ID : 3
Format : AC-3
Format/Info : Audio Coding 3
Mode extension : CM (complete main)
Format settings, Endianness : Big
Codec ID : A_AC3
Duration : 1h 30mn
Bit rate mode : Constant
Bit rate : 640 Kbps
Channel(s) : 6 channels
Channel positions : Front: L C R, Side: L R, LFE
Sampling rate : 48.0 KHz
Compression mode : Lossy
Delay relative to video : -83ms
Stream size : 412 MiB (16%)
Title : Inglés AC3 5.1 [640 Kbps]
Language : English
Default : No
Forced : No

Text #1
ID : 4
Format : PGS
Codec ID : S_HDMV/PGS
Codec ID/Info : Picture based subtitle format used on BDs/HD-DVDs
Title : Subtítulos Español Latino [PGS]
Language : Spanish
Default : No
Forced : No

Text #2
ID : 5
Format : UTF-8
Codec ID : S_TEXT/UTF8
Codec ID/Info : UTF-8 Plain Text
Title : Subtítulos Español Latino - Forzados [SRT]
Language : Spanish
Default : No
Forced : Yes

Menu
00:00:00.000 : :Chapter 1
00:04:36.651 : :Chapter 2
00:12:52.063 : :Chapter 3
00:17:15.701 : :Chapter 4
00:25:23.814 : :Chapter 5
00:33:05.817 : :Chapter 6
00:37:57.358 : :Chapter 7
00:40:51.866 : :Chapter 8
00:44:36.507 : :Chapter 9
00:50:37.993 : :Chapter 10
00:55:28.783 : :Chapter 11
01:01:29.394 : :Chapter 12
01:07:18.326 : :Chapter 13
01:09:34.753 : :Chapter 14
01:15:05.167 : :Chapter 15
01:19:23.467 : :Chapter 16

Download Links

CONTRASEÑA PARA DESCOMPRIMIR

APORTES NUEVOS

cinemaniahdd.com

APORTES VIEJOS

CinemaniaHD.org

COMPRA O RENUEVA TU PREMIUM DE UPLOADED DESDE EL SIGUIENTE LINK:

http://ul.to/ref/9821430

SI GUSTAS PUEDES SEGUIRNOS EN LAS REDES SOCIALES

Facebook

Twitter

Post Relacionados