Actualmente tenemos 4567 para descargar peliculas gratis 1080p latino

In A Valley Of Violence (2016) 1080p BluRay x265 HEVC DTS Dual Latino

in-a-valley-of-violence-x265
Paul es un cowboy solitario que viaja a México en compañía de su fiel perro, pero un altercado en un pueblo de mala muerte complicará su camino. En su continua exploración de los géneros cinematográficos, Ti West nos sorprende con un western de ley, rodado en 35mm y con un reparto de campanillas encabezado por Ethan Hawke, John Travolta, Karen Gillan y Taissa Farmiga.


Titulo Original In a Valley of Violence
Año 2016-10-21
Duracion 104
Guion Ti West
Director Ti West
Musica
Photografia
Reparto Ethan Hawke, John Travolta, Taissa Farmiga, James Ransone
Productora Blumhouse Productions, Universal,
Genero Suspense, Western,
Titulo original In A Valley Of Violence
Titulo Latino In A Valley Of Violence
Otros Titulos El Valle De La Venganza
Audio Español Latino DTS 5.1 - Inglés DTS 5.1
Calidad: FULL HD 1080p Resolucion: 1920x1080 Formato: MKV
Codec: H.265 Encoder: SebastianHDx Peso: 4.41 GB
Subtitulos: Español Latino [PGS] - Forzados [PGS/SRT] Duracion: 1h 44min Capitulos:
  • No hay video embed hola

In A Valley Of Violence (2016) 1080p BluRay x265 HEVC DTS Dual Latino.mkv
Format : Matroska
Format version : Version 4 / Version 2
File size : 4.41 GiB
Duration : 1h 43mn
Overall bit rate : 6 087 Kbps
Encoded date : UTC 2016-12-30 02:36:35
Writing application : mkvmerge v8.6.1 ('Flying') 64bit
Writing library : libebml v1.3.3 + libmatroska v1.4.4
DURATION : 01:32:15.738000000
NUMBER_OF_FRAMES : 3
NUMBER_OF_BYTES : 42
_STATISTICS_WRITING_APP : mkvmerge v8.6.1 ('Flying') 64bit
_STATISTICS_WRITING_DATE_UT : 2016-12-30 02:36:35
_STATISTICS_TAGS : BPS DURATION NUMBER_OF_FRAMES NUMBER_OF_BYTES

Video
ID : 1
Format : HEVC
Format/Info : High Efficiency Video Coding
Format profile : Main@L4@Main
Codec ID : V_MPEGH/ISO/HEVC
Duration : 1h 43mn
Bit rate : 3 689 Kbps
Width : 1 920 pixels
Height : 1 080 pixels
Display aspect ratio : 16:9
Frame rate mode : Constant
Frame rate : 23.976 fps
Color space : YUV
Chroma subsampling : 4:2:0
Bit depth : 8 bits
Bits/(Pixel*Frame) : 0.074
Stream size : 2.67 GiB (61%)
Writing library : x265 1.9:[Windows][GCC 4.9.0][64 bit] 8bit
Encoding settings : wpp / ctu=64 / min-cu-size=8 / max-tu-size=32 / tu-intra-depth=1 / tu-inter-depth=1 / me=3 / subme=3 / merange=57 / rect / no-amp / max-merge=3 / temporal-mvp / no-early-skip / rdpenalty=0 / no-tskip / no-tskip-fast / strong-intra-smoothing / no-lossless / no-cu-lossless / no-constrained-intra / no-fast-intra / open-gop / no-temporal-layers / interlace=0 / keyint=240 / min-keyint=24 / scenecut=40 / rc-lookahead=25 / lookahead-slices=4 / bframes=4 / bframe-bias=0 / b-adapt=2 / ref=4 / limit-refs=3 / limit-modes / weightp / no-weightb / aq-mode=1 / qg-size=32 / aq-strength=1.00 / cbqpoffs=0 / crqpoffs=0 / rd=4 / psy-rd=2.00 / rdoq-level=2 / psy-rdoq=1.00 / signhide / deblock / sao / no-sao-non-deblock / b-pyramid / cutree / no-intra-refresh / rc=crf / crf=20.0 / qcomp=0.60 / qpmin=0 / qpmax=51 / qpstep=4 / ipratio=1.40 / pbratio=1.30
Default : Yes
Forced : No
Color range : Limited
Color primaries : BT.709
Transfer characteristics : BT.709
Matrix coefficients : BT.709
DURATION : 01:43:37.253000000
NUMBER_OF_FRAMES : 149064
NUMBER_OF_BYTES : 2935033988
_STATISTICS_WRITING_APP : mkvmerge v8.6.1 ('Flying') 64bit
_STATISTICS_WRITING_DATE_UT : 2016-12-30 02:36:35
_STATISTICS_TAGS : BPS DURATION NUMBER_OF_FRAMES NUMBER_OF_BYTES

Audio #1
ID : 2
Format : DTS
Format/Info : Digital Theater Systems
Mode : 16
Format settings, Endianness : Big
Codec ID : A_DTS
Duration : 1h 43mn
Bit rate mode : Constant
Bit rate : 768 Kbps
Channel(s) : 6 channels
Channel positions : Front: L C R, Side: L R, LFE
Sampling rate : 48.0 KHz
Bit depth : 24 bits
Compression mode : Lossy
Delay relative to video : -83ms
Stream size : 569 MiB (13%)
Title : Español Latino DTS 5.1 [768 Kbps]
Language : Spanish
Default : Yes
Forced : No

Audio #2
ID : 3
Format : DTS
Format/Info : Digital Theater Systems
Mode : 16
Format settings, Endianness : Big
Codec ID : A_DTS
Duration : 1h 43mn
Bit rate mode : Constant
Bit rate : 1 509 Kbps
Channel(s) : 6 channels
Channel positions : Front: L C R, Side: L R, LFE
Sampling rate : 48.0 KHz
Bit depth : 24 bits
Compression mode : Lossy
Delay relative to video : -83ms
Stream size : 1.09 GiB (25%)
Title : Inglés DTS 5.1 [1509 Kbps]
Language : English
Default : No
Forced : No

Text #1
ID : 4
Format : PGS
Codec ID : S_HDMV/PGS
Codec ID/Info : Picture based subtitle format used on BDs/HD-DVDs
Title : Subtítulos Español Latino [PGS]
Language : Spanish
Default : No
Forced : No

Text #2
ID : 5
Format : PGS
Codec ID : S_HDMV/PGS
Codec ID/Info : Picture based subtitle format used on BDs/HD-DVDs
Title : Subtítulos Español Latino - Forzados [PGS]
Language : Spanish
Default : No
Forced : No

Text #3
ID : 6
Format : UTF-8
Codec ID : S_TEXT/UTF8
Codec ID/Info : UTF-8 Plain Text
Title : Subtítulos Español Latino - Forzados [SRT]
Language : Spanish
Default : No
Forced : Yes

Menu
00:00:00.000 : :Chapter 1
00:08:11.532 : :Chapter 2
00:12:10.688 : :Chapter 3
00:18:04.458 : :Chapter 4
00:23:38.709 : :Chapter 5
00:26:42.559 : :Chapter 6
00:31:03.361 : :Chapter 7
00:36:37.904 : :Chapter 8
00:41:27.568 : :Chapter 9
00:50:32.070 : :Chapter 10
00:56:27.133 : :Chapter 11
01:01:45.618 : :Chapter 12
01:05:32.345 : :Chapter 13
01:08:18.219 : :Chapter 14
01:12:24.506 : :Chapter 15
01:16:22.828 : :Chapter 16
01:20:23.110 : :Chapter 17
01:25:15.610 : :Chapter 18
01:33:04.495 : :Chapter 19
01:39:17.660 : :Chapter 20

Download Links

CONTRASEÑA PARA DESCOMPRIMIR

APORTES NUEVOS

cinemaniahdd.com

APORTES VIEJOS

CinemaniaHD.org

COMPRA O RENUEVA TU PREMIUM DE UPLOADED DESDE EL SIGUIENTE LINK:

http://ul.to/ref/9821430

SI GUSTAS PUEDES SEGUIRNOS EN LAS REDES SOCIALES

Facebook

Twitter

Post Relacionados