Actualmente tenemos 4567 para descargar peliculas gratis 1080p latino

Juego de Tronos [5° Temporada] 1080p x265 HEVC Latino – Inglés

Serie de TV (2011-hasta ahora). Su historia se desarrolla en un mundo de ambiente medieval donde hay Siete Reinos. Tras un largo verano de muchos años, el temible invierno se acerca. Ned Stark, señor de Invernalia, deja sus dominios para ir a la corte de su amigo, el rey Robert Baratheon en Desembarco del Rey. Stark se convierte en la Mano del Rey e intenta desentrañar una maraña de intrigas que pondrá en peligro su vida y la de todos los suyos. Por otro lado, diversas facciones conspiran con un solo objetivo: apoderarse del trono.



Titulo Original Game of Thrones
Año 2015
Duracion 50 min Aprox.
Guion
Director David Benioff (Creator), D.B. Weiss (Creator)
Musica Ramin Djawadi
Photografia Matt Jensen, Marco Pontecorvo, Alik Sakharov
Reparto Lena Headey, Peter Dinklage, Maisie Williams, Emilia Clarke, Kit Harington, Nikolaj Coster-Waldau, Sophie Turner, Michelle Fairley, Sean Bean, Charles Dance, Jack Gleeson, Rory McCann, Isaac Hempstead Wright, Mark Addy, Alfie Allen, Iain Glen, Aidan Gillen, Conleth Hill, Richard Madden, Stephen Dillane, Carice van Houten, Natalie Dormer, John Bradley, Jerome Flynn, Gwendoline Christie
Productora Lena Headey, Peter Dinklage, Maisie Williams, Emilia Clarke, Kit Harington, Nikolaj Coster-Waldau, Sophie Turner, Michelle Fairley, Sean Bean, Charles Dance, Jack Gleeson, Rory McCann, Isaac Hempstead Wright, Mark Addy, Alfie Allen, Iain Glen, Aidan Gillen, Conleth Hill, Richard Madden, Stephen Dillane, Carice van Houten, Natalie Dormer, John Bradley, Jerome Flynn, Gwendoline Christie
Genero
Titulo original Game of Thrones [5° Temporada] 1080p x265 HEVC Latino – Inglés
Titulo Latino Juego de Tronos [5° Temporada] 1080p x265 HEVC Latino – Inglés
Otros Titulos Game of Thrones [5° Temporada] 1080p x265 HEVC Latino – Inglés
Audio Español Latino [AC3 2.0 BD] - Inglés [AC3 5.1 BD]
Calidad: FULL HD 1080p Resolucion: 1920x1080p Formato: MKV
Codec: x265 HEVC Encoder: Papelillio Peso: 1.2GB Aprox. c/u
Subtitulos: Español Latino [.SRT + .PGS] Duracion: 00:50:00 min Aprox. Capitulos: 10
  • No hay video embed hola

General
Complete name                  : Game.of.Thrones.S05E01.1080p.BluRay.x265.HEVC.Dual.Latino-Papelillio.mkv
Format                         : Matroska
Format version                 : Version 4 / Version 2
File size                      : 1.06 GiB
Duration                       : 52mn 11s
Overall bit rate               : 2 907 Kbps
Encoded date                   : UTC 2016-03-04 06:17:17
Writing application            : mkvmerge v7.9.0 ('Birds') 64bit
Writing library                : libebml v1.3.1 + libmatroska v1.4.2

Video
ID                             : 1
Format                         : HEVC
Format/Info                    : High Efficiency Video Coding
Format profile                 : Main@L4@Main
Codec ID                       : V_MPEGH/ISO/HEVC
Duration                       : 52mn 11s
Bit rate                       : 2 000 Kbps
Width                          : 1 920 pixels
Height                         : 1 080 pixels
Display aspect ratio           : 16:9
Frame rate mode                : Constant
Frame rate                     : 23.976 (24000/1001) fps
Color space                    : YUV
Chroma subsampling             : 4:2:0
Bit depth                      : 8 bits
Bits/(Pixel*Frame)             : 0.040
Stream size                    : 747 MiB (69%)
Title                          : Fuente Encodeo: BD50 - Papelillio
Writing library                : x265 1.9:[Windows][GCC 4.9.0][64 bit] 8bit
Encoding settings              : wpp / ctu=64 / min-cu-size=8 / max-tu-size=32 / tu-intra-depth=1 / tu-inter-depth=1 / me=3 / subme=3 / merange=57 / rect / no-amp / max-merge=3 / temporal-mvp / no-early-skip / rdpenalty=0 / no-tskip / no-tskip-fast / strong-intra-smoothing / no-lossless / no-cu-lossless / no-constrained-intra / no-fast-intra / open-gop / no-temporal-layers / interlace=0 / keyint=240 / min-keyint=24 / scenecut=40 / rc-lookahead=25 / lookahead-slices=4 / bframes=4 / bframe-bias=0 / b-adapt=2 / ref=4 / limit-refs=3 / limit-modes / weightp / no-weightb / aq-mode=1 / qg-size=32 / aq-strength=1.00 / cbqpoffs=0 / crqpoffs=0 / rd=4 / psy-rd=2.00 / rdoq-level=2 / psy-rdoq=1.00 / signhide / deblock / sao / no-sao-non-deblock / b-pyramid / cutree / no-intra-refresh / rc=crf / crf=20.0 / qcomp=0.60 / qpmin=0 / qpmax=51 / qpstep=4 / ipratio=1.40 / pbratio=1.30
Default                        : Yes
Forced                         : No
Color range                    : Limited
Color primaries                : BT.709
Transfer characteristics       : BT.709
Matrix coefficients            : BT.709

Audio #1
ID                             : 2
Format                         : AC-3
Format/Info                    : Audio Coding 3
Format profile                 : Dolby Digital
Mode extension                 : CM (complete main)
Format settings, Endianness    : Big
Codec ID                       : A_AC3
Duration                       : 52mn 11s
Bit rate mode                  : Constant
Bit rate                       : 256 Kbps
Channel(s)                     : 2 channels
Channel positions              : Front: L R
Sampling rate                  : 48.0 KHz
Frame rate                     : 31.250 fps (1536 spf)
Compression mode               : Lossy
Delay relative to video        : -83ms
Stream size                    : 95.6 MiB (9%)
Title                          : Audio Español Latino AC3 2.0 @256Kbps - Papelillio
Language                       : Spanish
Default                        : Yes
Forced                         : No

Audio #2
ID                             : 3
Format                         : AC-3
Format/Info                    : Audio Coding 3
Mode extension                 : CM (complete main)
Format settings, Endianness    : Big
Codec ID                       : A_AC3
Duration                       : 52mn 11s
Bit rate mode                  : Constant
Bit rate                       : 640 Kbps
Channel(s)                     : 6 channels
Channel positions              : Front: L C R, Side: L R, LFE
Sampling rate                  : 48.0 KHz
Frame rate                     : 31.250 fps (1536 spf)
Compression mode               : Lossy
Delay relative to video        : -83ms
Stream size                    : 239 MiB (22%)
Title                          : Audio Inglés AC3 5.1 @640Kbps - Papelillio
Language                       : English
Default                        : No
Forced                         : No

Text #1
ID                             : 4
Format                         : UTF-8
Codec ID                       : S_TEXT/UTF8
Codec ID/Info                  : UTF-8 Plain Text
Duration                       : 46mn 49s
Bit rate                       : 58 bps
Count of elements              : 586
Stream size                    : 19.9 KiB (0%)
Title                          : Subtítulos Español Latino (SRT) - Papelillio
Language                       : Spanish
Default                        : No
Forced                         : No

Text #2
ID                             : 5
Format                         : PGS
Muxing mode                    : zlib
Codec ID                       : S_HDMV/PGS
Codec ID/Info                  : Picture based subtitle format used on BDs/HD-DVDs
Duration                       : 46mn 49s
Bit rate                       : 10.3 Kbps
Count of elements              : 1172
Stream size                    : 3.46 MiB (0%)
Title                          : Subtítulos Español Latino (PGS) - Papelillio
Language                       : Spanish
Default                        : No
Forced                         : No

Menu
00:00:00.000                   : :Chapter 1
00:01:54.823                   : :Chapter 2
00:09:24.146                   : :Chapter 3
00:18:00.746                   : :Chapter 4
00:24:15.912                   : :Chapter 5
00:32:26.903                   : :Chapter 6
00:41:24.190                   : :Chapter 7
00:50:51.590                   : :Chapter 8

Download Links

CONTRASEÑA PARA DESCOMPRIMIR

APORTES NUEVOS

cinemaniahdd.com

APORTES VIEJOS

CinemaniaHD.org

COMPRA O RENUEVA TU PREMIUM DE UPLOADED DESDE EL SIGUIENTE LINK:

http://ul.to/ref/9821430

SI GUSTAS PUEDES SEGUIRNOS EN LAS REDES SOCIALES

Facebook

Twitter

Post Relacionados