Actualmente tenemos 4570 para descargar peliculas gratis 1080p latino

Jurassic Park 2: El Mundo Perdido (1997) 1080p FULL HD Dual Latino

Cuatro años después del desastre ocurrido en el Parque Jurásico de la isla Nublar, John Hammond revela a Ian Malcolm que existe otra isla en la que se criaban los dinosaurios antes de ser transportados a la isla Nublar. Ian, acompañado por dos expertos, deberá acudir a la isla Sorna para rescatar a una científica, aunque los planes cambiarán drásticamente.



Titulo Original The Lost World: Jurassic Park
Año 1997
Duracion 129 min.
Guion
Director Steven Spielberg
Musica John Williams
Photografia Janusz Kaminski
Reparto Jeff Goldblum, Julianne Moore, Pete Postlethwaite, Arliss Howard, Richard Attenborough, Vince Vaughn, Peter Stormare, Vanessa Lee Chester, Camilla Belle, Richard Schiff, Joseph Mazzello, Ariana Richards
Productora Jeff Goldblum, Julianne Moore, Pete Postlethwaite, Arliss Howard, Richard Attenborough, Vince Vaughn, Peter Stormare, Vanessa Lee Chester, Camilla Belle, Richard Schiff, Joseph Mazzello, Ariana Richards
Genero
Titulo original The Lost World: Jurassic Park (1997) 1080p FULL HD Dual Latino
Titulo Latino Jurassic Park: El Mundo Perdido (1997) 1080p FULL HD Dual Latino
Otros Titulos Jurassic Park: El Mundo Perdido (1997) 1080p FULL HD Dual Latino
Audio Español Latino [DTS 5.1 BD] - Inglés [DTS 5.1 BD]
Calidad: FULL HD 1080p Resolucion: 1920x1080p Formato: MKV
Codec: H.264 Encoder: ADDKiQ Peso: 11.8 GB
Subtitulos: Español Latino [PGS] - Ingles [PGS] Duracion: 129 min. Capitulos:
  • No hay video embed hola

General
Unique ID : 250741961184931482876880511033131434395 (0xBCA32527A2C31CEBAA48F7500D0C819B)
Complete name : P:\Video\Video\Jurassic.Park.II.1997.1080p.VC-1.Latino\THE_LOST_WORLD__JURASSIC_PARK2.mkv
Format : Matroska
Format version : Version 2
File size : 11.9 GiB
Duration : 2h 8mn
Overall bit rate : 13.2 Mbps
Movie name : THE_LOST_WORLD__JURASSIC_PARK.Title800
Encoded date : UTC 2016-02-01 06:07:35
Writing application : DVDFab 9.2.2.4
Writing library : libebml v0.7.8 + libmatroska v0.8.1

Video
ID : 1
Format : AVC
Format/Info : Advanced Video Codec
Format profile : High@L4.1
Format settings, CABAC : Yes
Format settings, ReFrames : 2 frames
Codec ID : V_MPEG4/ISO/AVC
Duration : 2h 8mn
Bit rate : 10.6 Mbps
Width : 1 920 pixels
Height : 1 080 pixels
Display aspect ratio : 16:9
Frame rate mode : Constant
Frame rate : 23.976 (24000/1001) fps
Color space : YUV
Chroma subsampling : 4:2:0
Bit depth : 8 bits
Scan type : Progressive
Bits/(Pixel*Frame) : 0.214
Stream size : 9.58 GiB (81%)
Writing library : x264 core 142
Encoding settings : cabac=1 / ref=1 / deblock=1:-1:-1 / analyse=0x3:0 / me=hex / subme=5 / psy=0 / mixed_ref=0 / me_range=16 / chroma_me=1 / trellis=0 / 8x8dct=1 / cqm=0 / deadzone=21,11 / fast_pskip=1 / chroma_qp_offset=0 / threads=24 / lookahead_threads=6 / sliced_threads=0 / nr=0 / decimate=1 / interlaced=0 / bluray_compat=0 / constrained_intra=0 / bframes=2 / b_pyramid=0 / b_adapt=1 / b_bias=0 / direct=1 / weightb=1 / open_gop=0 / weightp=0 / keyint=24 / keyint_min=13 / scenecut=40 / intra_refresh=0 / rc=crf / mbtree=0 / crf=20.0 / qcomp=0.60 / qpmin=0 / qpmax=69 / qpstep=4 / ip_ratio=1.40 / pb_ratio=1.30 / aq=1:1.00
Default : Yes
Forced : No
Color range : Limited
Color primaries : BT.709
Transfer characteristics : BT.709
Matrix coefficients : BT.709

Audio #1
ID : 2
Format : DTS
Format/Info : Digital Theater Systems
Mode : 16
Format settings, Endianness : Big
Codec ID : A_DTS
Duration : 2h 8mn
Bit rate mode : Constant
Bit rate : 768 Kbps
Channel(s) : 6 channels
Channel positions : Front: L C R, Side: L R, LFE
Sampling rate : 48.0 KHz
Frame rate : 93.750 fps (512 spf)
Bit depth : 24 bits
Compression mode : Lossy
Stream size : 707 MiB (6%)
Language : Spanish
Default : Yes
Forced : No

Audio #2
ID : 3
Format : DTS
Format/Info : Digital Theater Systems
Mode : 16
Format settings, Endianness : Big
Codec ID : A_DTS
Duration : 2h 8mn
Bit rate mode : Constant
Bit rate : 1 509 Kbps
Channel(s) : 6 channels
Channel positions : Front: L C R, Side: L R, LFE
Sampling rate : 48.0 KHz
Frame rate : 93.750 fps (512 spf)
Bit depth : 24 bits
Compression mode : Lossy
Stream size : 1.36 GiB (11%)
Language : English
Default : No
Forced : No

Text #1
ID : 4
Format : PGS
Codec ID : S_HDMV/PGS
Codec ID/Info : Picture based subtitle format used on BDs/HD-DVDs
Language : English
Default : No
Forced : No

Text #2
ID : 5
Format : PGS
Codec ID : S_HDMV/PGS
Codec ID/Info : Picture based subtitle format used on BDs/HD-DVDs
Language : Spanish
Default : No
Forced : No

Text #3
ID : 6
Format : PGS
Codec ID : S_HDMV/PGS
Codec ID/Info : Picture based subtitle format used on BDs/HD-DVDs
Language : Spanish
Default : No
Forced : No

Text #4
ID : 7
Format : PGS
Codec ID : S_HDMV/PGS
Codec ID/Info : Picture based subtitle format used on BDs/HD-DVDs
Language : English
Default : No
Forced : No

Text #5
ID : 8
Format : PGS
Codec ID : S_HDMV/PGS
Codec ID/Info : Picture based subtitle format used on BDs/HD-DVDs
Language : Spanish
Default : No
Forced : No

Text #6
ID : 9
Format : PGS
Codec ID : S_HDMV/PGS
Codec ID/Info : Picture based subtitle format used on BDs/HD-DVDs
Language : Spanish
Default : No
Forced : No

Menu
00:00:00.000 : en:(01)00:00:00:000
00:04:13.586 : en:(02)00:04:13:586
00:08:38.309 : en:(03)00:08:38:309
00:16:11.929 : en:(04)00:16:11:929
00:21:43.135 : en:(05)00:21:43:135
00:33:22.458 : en:(06)00:33:22:458
00:41:48.797 : en:(07)00:41:48:797
00:47:58.000 : en:(08)00:47:58:000
00:53:40.592 : en:(09)00:53:40:592
01:04:46.674 : en:(10)01:04:46:674
01:12:59.708 : en:(11)01:12:59:708
01:20:47.884 : en:(12)01:20:47:884
01:26:18.965 : en:(13)01:26:18:965
01:31:53.382 : en:(14)01:31:53:382
01:42:23.637 : en:(15)01:42:23:637
01:50:52.687 : en:(16)01:50:52:687
01:52:13.935 : en:(17)01:52:13:935
01:58:10.875 : en:(18)01:58:10:875
01:59:51.601 : en:(19)01:59:51:601
02:01:56.434 : en:(20)02:01:56:434
02:08:46.468 : en:(21)02:08:46:468

Download Links

CONTRASEÑA PARA DESCOMPRIMIR

APORTES NUEVOS

cinemaniahdd.com

APORTES VIEJOS

CinemaniaHD.org

COMPRA O RENUEVA TU PREMIUM DE UPLOADED DESDE EL SIGUIENTE LINK:

http://ul.to/ref/9821430

SI GUSTAS PUEDES SEGUIRNOS EN LAS REDES SOCIALES

Facebook

Twitter

Post Relacionados