Actualmente tenemos 4567 para descargar peliculas gratis 1080p latino

La Bruja De Blair (2016) 1080p BluRay x265 HEVC DTS Dual Latino

blair-witch-x265
Un grupo de estudiantes se va de acampada pero descubren que no están solos, algo siniestro se esconde detrás de los árboles.


Titulo Original Blair Witch
Año 2016-09-15
Duracion 89
Guion Simon Barrett
Director Adam Wingard
Musica
Photografia
Reparto James Allen McCune, Callie Hernandez, Corbin Reid, Brandon Scott
Productora Lionsgate, Room 101, Snoot Entertainment,
Genero Terror, Suspense,
Titulo original Blair Witch
Titulo Latino La Bruja De Blair
Otros Titulos
Audio Español Latino AC3 5.1 - Inglés DTS 5.1
Calidad: FULL HD 1080p Resolucion: 1920x1080 Formato: MKV
Codec: H.265 Encoder: SebastianHDx Peso: 5.73 GB
Subtitulos: Español Latino [PGS] - Forzados [PGS/SRT] Duracion: 1h 29min Capitulos:
  • No hay video embed hola

La Bruja De Blair (2016) 1080p BluRay x265 HEVC DTS Dual Latino.mkv
Format : Matroska
Format version : Version 4 / Version 2
File size : 5.73 GiB
Duration : 1h 29mn
Overall bit rate : 9 199 Kbps
Encoded date : UTC 2016-12-29 01:06:11
Writing application : mkvmerge v8.6.1 ('Flying') 64bit
Writing library : libebml v1.3.3 + libmatroska v1.4.4
DURATION : 00:58:41.643000000
NUMBER_OF_FRAMES : 4
NUMBER_OF_BYTES : 86
_STATISTICS_WRITING_APP : mkvmerge v8.6.1 ('Flying') 64bit
_STATISTICS_WRITING_DATE_UT : 2016-12-29 01:06:11
_STATISTICS_TAGS : BPS DURATION NUMBER_OF_FRAMES NUMBER_OF_BYTES

Video
ID : 1
Format : HEVC
Format/Info : High Efficiency Video Coding
Format profile : Main@L4@Main
Codec ID : V_MPEGH/ISO/HEVC
Duration : 1h 29mn
Bit rate : 6 867 Kbps
Width : 1 920 pixels
Height : 1 080 pixels
Display aspect ratio : 16:9
Frame rate mode : Constant
Frame rate : 23.976 fps
Color space : YUV
Chroma subsampling : 4:2:0
Bit depth : 8 bits
Bits/(Pixel*Frame) : 0.138
Stream size : 4.28 GiB (75%)
Writing library : x265 1.9:[Windows][GCC 4.9.0][64 bit] 8bit
Encoding settings : wpp / ctu=64 / min-cu-size=8 / max-tu-size=32 / tu-intra-depth=1 / tu-inter-depth=1 / me=3 / subme=3 / merange=57 / rect / no-amp / max-merge=3 / temporal-mvp / no-early-skip / rdpenalty=0 / no-tskip / no-tskip-fast / strong-intra-smoothing / no-lossless / no-cu-lossless / no-constrained-intra / no-fast-intra / open-gop / no-temporal-layers / interlace=0 / keyint=240 / min-keyint=24 / scenecut=40 / rc-lookahead=25 / lookahead-slices=4 / bframes=4 / bframe-bias=0 / b-adapt=2 / ref=4 / limit-refs=3 / limit-modes / weightp / no-weightb / aq-mode=1 / qg-size=32 / aq-strength=1.00 / cbqpoffs=0 / crqpoffs=0 / rd=4 / psy-rd=2.00 / rdoq-level=2 / psy-rdoq=1.00 / signhide / deblock / sao / no-sao-non-deblock / b-pyramid / cutree / no-intra-refresh / rc=crf / crf=20.0 / qcomp=0.60 / qpmin=0 / qpmax=51 / qpstep=4 / ipratio=1.40 / pbratio=1.30
Default : Yes
Forced : No
Color range : Limited
Color primaries : BT.709
Transfer characteristics : BT.709
Matrix coefficients : BT.709
DURATION : 01:29:11.388000000
NUMBER_OF_FRAMES : 128305
NUMBER_OF_BYTES : 4696848735
_STATISTICS_WRITING_APP : mkvmerge v8.6.1 ('Flying') 64bit
_STATISTICS_WRITING_DATE_UT : 2016-12-29 01:06:11
_STATISTICS_TAGS : BPS DURATION NUMBER_OF_FRAMES NUMBER_OF_BYTES

Audio #1
ID : 2
Format : AC-3
Format/Info : Audio Coding 3
Mode extension : CM (complete main)
Format settings, Endianness : Big
Codec ID : A_AC3
Duration : 1h 29mn
Bit rate mode : Constant
Bit rate : 640 Kbps
Channel(s) : 6 channels
Channel positions : Front: L C R, Side: L R, LFE
Sampling rate : 48.0 KHz
Compression mode : Lossy
Delay relative to video : -83ms
Stream size : 408 MiB (7%)
Title : Español Latino AC3 5.1 [640 Kbps]
Language : Spanish
Default : Yes
Forced : No

Audio #2
ID : 3
Format : DTS
Format/Info : Digital Theater Systems
Mode : 16
Format settings, Endianness : Big
Codec ID : A_DTS
Duration : 1h 29mn
Bit rate mode : Constant
Bit rate : 1 509 Kbps
Channel(s) : 6 channels
Channel positions : Front: L C R, Side: L R, LFE
Sampling rate : 48.0 KHz
Bit depth : 24 bits
Compression mode : Lossy
Delay relative to video : -83ms
Stream size : 963 MiB (16%)
Title : Inglés DTS 5.1 [1509 Kbps]
Language : English
Default : No
Forced : No

Text #1
ID : 4
Format : PGS
Codec ID : S_HDMV/PGS
Codec ID/Info : Picture based subtitle format used on BDs/HD-DVDs
Title : Subtítulos Español Latino [PGS]
Language : Spanish
Default : No
Forced : No

Text #2
ID : 5
Format : PGS
Codec ID : S_HDMV/PGS
Codec ID/Info : Picture based subtitle format used on BDs/HD-DVDs
Title : Subtítulos Español Latino - Forzados [PGS]
Language : Spanish
Default : No
Forced : No

Text #3
ID : 6
Format : UTF-8
Codec ID : S_TEXT/UTF8
Codec ID/Info : UTF-8 Plain Text
Title : Subtítulos Español Latino - Forzados [SRT]
Language : Spanish
Default : No
Forced : Yes

Menu
00:00:00.000 : :Chapter 1
00:05:09.434 : :Chapter 2
00:08:24.504 : :Chapter 3
00:10:57.907 : :Chapter 4
00:16:17.351 : :Chapter 5
00:21:14.523 : :Chapter 6
00:29:41.363 : :Chapter 7
00:35:57.989 : :Chapter 8
00:40:35.516 : :Chapter 9
00:46:00.341 : :Chapter 10
00:52:30.731 : :Chapter 11
00:59:20.807 : :Chapter 12
01:04:41.878 : :Chapter 13
01:09:51.562 : :Chapter 14
01:15:52.548 : :Chapter 15
01:20:29.366 : :Chapter 16

Download Links

CONTRASEÑA PARA DESCOMPRIMIR

APORTES NUEVOS

cinemaniahdd.com

APORTES VIEJOS

CinemaniaHD.org

COMPRA O RENUEVA TU PREMIUM DE UPLOADED DESDE EL SIGUIENTE LINK:

http://ul.to/ref/9821430

SI GUSTAS PUEDES SEGUIRNOS EN LAS REDES SOCIALES

Facebook

Twitter

Post Relacionados