Actualmente tenemos 4567 para descargar peliculas gratis 1080p latino

La Gran Apuesta (2015) 1080p FULL HD Latino

Cuando cuatro tipos fuera del sistema descubren que los grandes bancos, los medios de comunicación y el gobierno se niegan a reconocer el colapso de la economía, tienen una idea: “La Gran Apuesta”… pero sus inversiones de riesgo les conducen al lado oscuro de la banca moderna, donde deben poner en duda todo y a todos… Adaptación del libro “La gran apuesta” de Michael Lewis, que reflexiona sobre la quiebra del sector inmobiliario norteamericano que originó la crisis económica mundial en 2008.



Titulo Original The Big Short
Año 2015
Duracion 123 min.
Guion
Director Adam McKay
Musica Nicholas Britell
Photografia Barry Ackroyd
Reparto Christian Bale, Steve Carell, Ryan Gosling, John Magaro, Finn Wittrock, Brad Pitt, Hamish Linklater, Rafe Spall, Jeremy Strong, Marisa Tomei, Melissa Leo, Stanley Wong, Byron Mann, Tracy Letts, Karen Gillan, Max Greenfield, Margot Robbie, Selena Gomez, Richard Thaler, Anthony Bourdain
Productora Christian Bale, Steve Carell, Ryan Gosling, John Magaro, Finn Wittrock, Brad Pitt, Hamish Linklater, Rafe Spall, Jeremy Strong, Marisa Tomei, Melissa Leo, Stanley Wong, Byron Mann, Tracy Letts, Karen Gillan, Max Greenfield, Margot Robbie, Selena Gomez, Richard Thaler, Anthony Bourdain
Genero
Titulo original The Big Short (2015) 1080p FULL HD Latino
Titulo Latino La Gran Apuesta (2015) 1080p FULL HD Latino
Otros Titulos La Gran Apuesta (2015) 1080p FULL HD Latino
Audio Español Latino [AC3 5.1 BD] - Ingles [DTS 5.1 BD]
Calidad: FULL HD 1080p Resolucion: 1920x1080p Formato: MKV
Codec: H.264 Encoder: ADDKiQ Peso: 12.6 GB
Subtitulos: Español Latino [PGS] - Ingles [PGS] Duracion: 123 min. Capitulos:
  • No hay video embed hola

General
Complete name : P:\LaGranApuesta(2015)cinemaniahdd.com.ADDKiQ.mkv
Format : Matroska
Format version : Version 4 / Version 2
File size : 12.1 GiB
Duration : 2h 10mn
Overall bit rate : 13.3 Mbps
Movie name : cinemaniahdd.com
Encoded date : UTC 2016-03-02 19:43:34 / UTC 2016-03-02T14:48:17Z
Writing application : mkvmerge v7.9.0 ('Birds') 64bit
Writing library : libebml v1.3.1 + libmatroska v1.4.2 / Lavf55.12.0

Video
ID : 1
Format : AVC
Format/Info : Advanced Video Codec
Format profile : High@L4.1
Format settings, CABAC : Yes
Format settings, ReFrames : 4 frames
Codec ID : V_MPEG4/ISO/AVC
Duration : 2h 10mn
Bit rate : 10.9 Mbps
Width : 1 920 pixels
Height : 1 080 pixels
Display aspect ratio : 16:9
Frame rate mode : Constant
Frame rate : 23.976 (24000/1001) fps
Color space : YUV
Chroma subsampling : 4:2:0
Bit depth : 8 bits
Scan type : Progressive
Bits/(Pixel*Frame) : 0.219
Stream size : 9.90 GiB (82%)
Title : cinemaniahdd.com
Writing library : x264 core 142 r2479 dd79a61
Encoding settings : cabac=1 / ref=4 / deblock=1:0:0 / analyse=0x3:0x133 / me=esa / subme=10 / psy=1 / psy_rd=1.00:0.00 / mixed_ref=1 / me_range=24 / chroma_me=1 / trellis=2 / 8x8dct=1 / cqm=0 / deadzone=21,11 / fast_pskip=1 / chroma_qp_offset=-2 / threads=36 / lookahead_threads=6 / sliced_threads=0 / nr=0 / decimate=1 / interlaced=0 / bluray_compat=0 / constrained_intra=0 / bframes=8 / b_pyramid=2 / b_adapt=2 / b_bias=0 / direct=3 / weightb=1 / open_gop=0 / weightp=2 / keyint=240 / keyint_min=24 / scenecut=40 / intra_refresh=0 / rc_lookahead=60 / rc=crf / mbtree=1 / crf=20.0 / qcomp=0.60 / qpmin=0 / qpmax=69 / qpstep=4 / vbv_maxrate=62500 / vbv_bufsize=78125 / crf_max=0.0 / nal_hrd=none / filler=0 / ip_ratio=1.40 / aq=1:1.00
Default : Yes
Forced : No
Color range : Limited
Color primaries : BT.709
Transfer characteristics : BT.709
Matrix coefficients : BT.709
Statistics Tags Issue : mkvmerge v7.9.0 ('Birds') 64bit 2016-03-02 19:43:34 / mkvmerge v7.9.0 ('Birds') 64bit 2016-03-02 19:43:34 / UTC 2016-03-02T14:48:17Z
FromStats_BitRate : 11112566
FromStats_Duration : 02:10:15.867000000
FromStats_FrameCount : 187392
FromStats_StreamSize : 10856793150

Audio #1
ID : 2
Format : DTS
Format/Info : Digital Theater Systems
Mode : 16
Format settings, Endianness : Big
Codec ID : A_DTS
Duration : 2h 10mn
Bit rate mode : Constant
Bit rate : 1 509 Kbps
Channel(s) : 6 channels
Channel positions : Front: L C R, Side: L R, LFE
Sampling rate : 48.0 KHz
Frame rate : 93.750 fps (512 spf)
Bit depth : 24 bits
Compression mode : Lossy
Stream size : 1.37 GiB (11%)
Title : Ingles cinemaniahdd.com
Language : English
Default : No
Forced : No
Statistics Tags Issue : mkvmerge v7.9.0 ('Birds') 64bit 2016-03-02 19:43:34 / mkvmerge v7.9.0 ('Birds') 64bit 2016-03-02 19:43:34 / UTC 2016-03-02T14:48:17Z
FromStats_BitRate : 1509000
FromStats_Duration : 02:10:15.840000000
FromStats_FrameCount : 732735
FromStats_StreamSize : 1474262820

Audio #2
ID : 3
Format : AC-3
Format/Info : Audio Coding 3
Mode extension : CM (complete main)
Format settings, Endianness : Big
Codec ID : A_AC3
Duration : 2h 10mn
Bit rate mode : Constant
Bit rate : 640 Kbps
Channel(s) : 6 channels
Channel positions : Front: L C R, Side: L R, LFE
Sampling rate : 48.0 KHz
Frame rate : 31.250 fps (1536 spf)
Compression mode : Lossy
Stream size : 596 MiB (5%)
Title : Latino cinemaniahdd.com
Language : Spanish
Default : Yes
Forced : No
Statistics Tags Issue : mkvmerge v7.9.0 ('Birds') 64bit 2016-03-02 19:43:34 / mkvmerge v7.9.0 ('Birds') 64bit 2016-03-02 19:43:34 / UTC 2016-03-02T14:48:17Z
FromStats_BitRate : 640000
FromStats_Duration : 02:10:15.872000000
FromStats_FrameCount : 244246
FromStats_StreamSize : 625269760

Text #1
ID : 4
Format : PGS
Muxing mode : zlib
Codec ID : S_HDMV/PGS
Codec ID/Info : Picture based subtitle format used on BDs/HD-DVDs
Title : cinemaniahdd.com
Language : English
Default : No
Forced : No
Statistics Tags Issue : mkvmerge v7.9.0 ('Birds') 64bit 2016-03-02 19:43:34 / mkvmerge v7.9.0 ('Birds') 64bit 2016-03-02 19:43:34 / UTC 2016-03-02T14:48:17Z
FromStats_BitRate : 17849
FromStats_Duration : 02:00:25.885000000
FromStats_FrameCount : 4614
FromStats_StreamSize : 16121885

Text #2
ID : 5
Format : PGS
Muxing mode : zlib
Codec ID : S_HDMV/PGS
Codec ID/Info : Picture based subtitle format used on BDs/HD-DVDs
Title : cinemaniahdd.com
Language : Spanish
Default : No
Forced : No
Statistics Tags Issue : mkvmerge v7.9.0 ('Birds') 64bit 2016-03-02 19:43:34 / mkvmerge v7.9.0 ('Birds') 64bit 2016-03-02 19:43:34 / UTC 2016-03-02T14:48:17Z
FromStats_BitRate : 15478
FromStats_Duration : 02:03:03.293000000
FromStats_FrameCount : 3946
FromStats_StreamSize : 14285471

Menu
00:00:00.000 : :Chapter 1
00:09:24.664 : :Chapter 2
00:15:47.672 : :Chapter 3
00:19:03.159 : :Chapter 4
00:25:59.616 : :Chapter 5
00:28:50.078 : :Chapter 6
00:37:24.342 : :Chapter 7
00:42:54.589 : :Chapter 8
00:49:36.782 : :Chapter 9
00:57:01.935 : :Chapter 10
01:02:09.993 : :Chapter 11
01:10:53.057 : :Chapter 12
01:17:03.344 : :Chapter 13
01:20:57.202 : :Chapter 14
01:29:53.321 : :Chapter 15
01:34:37.146 : :Chapter 16
01:41:16.003 : :Chapter 17
01:45:30.591 : :Chapter 18
01:49:34.751 : :Chapter 19
01:55:16.176 : :Chapter 20
02:03:44.600 : :Chapter 21

Download Links

CONTRASEÑA PARA DESCOMPRIMIR

APORTES NUEVOS

cinemaniahdd.com

APORTES VIEJOS

CinemaniaHD.org

COMPRA O RENUEVA TU PREMIUM DE UPLOADED DESDE EL SIGUIENTE LINK:

http://ul.to/ref/9821430

SI GUSTAS PUEDES SEGUIRNOS EN LAS REDES SOCIALES

Facebook

Twitter

Post Relacionados