Actualmente tenemos 4567 para descargar peliculas gratis 1080p latino

Los 33 (2015) 1080p Dual Latino

Narra los sucesos reales que ocurrieron en Chile en agosto del 2010, cuando el derrumbe de la mina San José dejó atrapados a 33 mineros a unos 720 metros de profundidad durante 70 días.



Titulo Original The 33
Año 2015
Duracion 127 min.
Guion
Director Patricia Riggen
Musica James Horner
Photografia Checco Varese
Reparto Antonio Banderas, Rodrigo Santoro, Juliette Binoche, Mario Casas, Cote de Pablo, Gabriel Byrne, Lou Diamond Phillips, James Brolin, Jacob Vargas, Kate del Castillo, Juan Pablo Raba, Oscar Nuñez, Adriana Barraza, Marco Treviño, Alejandro Goic, Tenoch Huerta, Bob Gunton, Ariel Sierra, Naomi Scott
Productora Antonio Banderas, Rodrigo Santoro, Juliette Binoche, Mario Casas, Cote de Pablo, Gabriel Byrne, Lou Diamond Phillips, James Brolin, Jacob Vargas, Kate del Castillo, Juan Pablo Raba, Oscar Nuñez, Adriana Barraza, Marco Treviño, Alejandro Goic, Tenoch Huerta, Bob Gunton, Ariel Sierra, Naomi Scott
Genero
Titulo original The 33 (2015) 1080p Dual Latino
Titulo Latino Los 33 (2015) 1080p Dual Latino
Otros Titulos Los 33 (2015) 1080p Dual Latino
Audio Español Latino [AC3 5.1 BD] - Inglés [AC3 5.1 BD]
Calidad: FULL 1080p Resolucion: 1920x1080 Formato: MKV
Codec: X264 Encoder: ADDKiQ Peso: 4.8 GB
Subtitulos: Español Latino [PGS] - Ingles [PGS] Duracion: 127 min. Capitulos:
  • No hay video embed hola

General
Unique ID : 231249211376733997992416714321050564539 (0xADF8FA637E23679AB0097D53BCA977BB)
Complete name : P:\Video\Video\THE_33\Th333NORMAL.mkv
Format : Matroska
Format version : Version 2
File size : 4.86 GiB
Duration : 2h 7mn
Overall bit rate : 5 470 Kbps
Movie name : THE_33.Title100
Encoded date : UTC 2016-01-30 21:29:58
Writing application : DVDFab 9.2.2.4
Writing library : libebml v0.7.8 + libmatroska v0.8.1

Video
ID : 1
Format : AVC
Format/Info : Advanced Video Codec
Format profile : High@L4.1
Format settings, CABAC : Yes
Format settings, ReFrames : 2 frames
Codec ID : V_MPEG4/ISO/AVC
Duration : 2h 7mn
Bit rate : 4 081 Kbps
Width : 1 920 pixels
Height : 1 080 pixels
Display aspect ratio : 16:9
Frame rate mode : Constant
Frame rate : 23.976 (24000/1001) fps
Color space : YUV
Chroma subsampling : 4:2:0
Bit depth : 8 bits
Scan type : Progressive
Bits/(Pixel*Frame) : 0.082
Stream size : 3.63 GiB (75%)
Writing library : x264 core 142
Encoding settings : cabac=1 / ref=1 / deblock=1:-1:-1 / analyse=0x3:0 / me=hex / subme=5 / psy=0 / mixed_ref=0 / me_range=16 / chroma_me=1 / trellis=0 / 8x8dct=1 / cqm=0 / deadzone=21,11 / fast_pskip=1 / chroma_qp_offset=0 / threads=24 / lookahead_threads=6 / sliced_threads=0 / nr=0 / decimate=1 / interlaced=0 / bluray_compat=0 / constrained_intra=0 / bframes=2 / b_pyramid=0 / b_adapt=1 / b_bias=0 / direct=1 / weightb=1 / open_gop=0 / weightp=0 / keyint=24 / keyint_min=13 / scenecut=40 / intra_refresh=0 / rc=crf / mbtree=0 / crf=25.0 / qcomp=0.60 / qpmin=0 / qpmax=69 / qpstep=4 / ip_ratio=1.40 / pb_ratio=1.30 / aq=1:1.00
Default : Yes
Forced : No
Color range : Limited
Color primaries : BT.709
Transfer characteristics : BT.709
Matrix coefficients : BT.709

Audio #1
ID : 2
Format : AC-3
Format/Info : Audio Coding 3
Mode extension : CM (complete main)
Format settings, Endianness : Big
Codec ID : A_AC3
Duration : 2h 7mn
Bit rate mode : Constant
Bit rate : 640 Kbps
Channel(s) : 6 channels
Channel positions : Front: L C R, Side: L R, LFE
Sampling rate : 48.0 KHz
Frame rate : 31.250 fps (1536 spf)
Compression mode : Lossy
Stream size : 582 MiB (12%)
Language : Spanish
Default : Yes
Forced : No

Audio #2
ID : 3
Format : AC-3
Format/Info : Audio Coding 3
Mode extension : CM (complete main)
Format settings, Endianness : Big
Codec ID : A_AC3
Duration : 2h 7mn
Bit rate mode : Constant
Bit rate : 640 Kbps
Channel(s) : 6 channels
Channel positions : Front: L C R, Side: L R, LFE
Sampling rate : 48.0 KHz
Frame rate : 31.250 fps (1536 spf)
Compression mode : Lossy
Stream size : 582 MiB (12%)
Language : English
Default : No
Forced : No

Text #1
ID : 4
Format : PGS
Codec ID : S_HDMV/PGS
Codec ID/Info : Picture based subtitle format used on BDs/HD-DVDs
Language : English
Default : No
Forced : No

Text #2
ID : 5
Format : PGS
Codec ID : S_HDMV/PGS
Codec ID/Info : Picture based subtitle format used on BDs/HD-DVDs
Language : Spanish
Default : No
Forced : No

Text #3
ID : 6
Format : PGS
Codec ID : S_HDMV/PGS
Codec ID/Info : Picture based subtitle format used on BDs/HD-DVDs
Language : English
Default : No
Forced : No

Text #4
ID : 7
Format : PGS
Codec ID : S_HDMV/PGS
Codec ID/Info : Picture based subtitle format used on BDs/HD-DVDs
Language : Spanish
Default : No
Forced : No

Menu
00:00:00.000 : en:(01)00:00:00:000
00:11:13.964 : en:(02)00:11:13:964
00:21:10.435 : en:(03)00:21:10:435
00:30:22.362 : en:(04)00:30:22:362
00:41:54.678 : en:(05)00:41:54:678
00:51:01.683 : en:(06)00:51:01:683
01:01:35.316 : en:(07)01:01:35:316
01:11:18.983 : en:(08)01:11:18:983
01:24:02.412 : en:(09)01:24:02:412
01:34:12.688 : en:(10)01:34:12:688
01:45:17.561 : en:(11)01:45:17:561
01:56:48.459 : en:(12)01:56:48:459
02:07:09.121 : en:(13)02:07:09:121

Download Links

CONTRASEÑA PARA DESCOMPRIMIR

APORTES NUEVOS

cinemaniahdd.com

APORTES VIEJOS

CinemaniaHD.org

COMPRA O RENUEVA TU PREMIUM DE UPLOADED DESDE EL SIGUIENTE LINK:

http://ul.to/ref/9821430

SI GUSTAS PUEDES SEGUIRNOS EN LAS REDES SOCIALES

Facebook

Twitter

Post Relacionados