Actualmente tenemos 4567 para descargar peliculas gratis 1080p latino

Los Huéspedes (2015) 1080p x265 HEVC Latino – Inglés

Una madre deja a sus dos hijos durante una semana en la remota granja de sus abuelos, en Pensilvania. Los niños descubrirán que la anciana pareja está implicada en algo profundamente inquietante. Película de M. Night Shyamalan (‘El sexto sentido’) realizada con muy bajo presupuesto.



Titulo Original The Visit
Año 2015
Duracion 94 min.
Guion
Director M. Night Shyamalan
Musica
Photografia Maryse Alberti
Reparto Olivia DeJonge, Ed Oxenbould, Deanna Dunagan, Peter McRobbie, Kathryn Hahn, Celia Keenan-Bolger, Samuel Stricklen, Patch Darragh
Productora Olivia DeJonge, Ed Oxenbould, Deanna Dunagan, Peter McRobbie, Kathryn Hahn, Celia Keenan-Bolger, Samuel Stricklen, Patch Darragh
Genero
Titulo original The Visit (2015) 1080p x265 HEVC Latino – Inglés
Titulo Latino Los Huéspedes (2015) 1080p x265 HEVC Latino – Inglés
Otros Titulos La Visita (2015) 1080p x265 HEVC Latino – Inglés
Audio Español Latino [AC3 5.1 BD] - Inglés [AC3 5.1 BD]
Calidad: FULL HD 1080p Resolucion: 1920x1080p Formato: MKV
Codec: x265 HEVC Encoder: Papelillio Peso: 2.25GB
Subtitulos: Español Latino [.PGS] - Inglés [.PGS] Duracion: 01:34:02 Capitulos:
  • No hay video embed hola

General
Complete name                  : The.Visit.2015.1080p.BluRay.x265.HEVC.Dual.Latino-Papelillio.mkv
Format                         : Matroska
Format version                 : Version 4 / Version 2
File size                      : 2.25 GiB
Duration                       : 1h 34mn
Overall bit rate               : 3 429 Kbps
Encoded date                   : UTC 2015-12-23 09:27:52
Writing application            : mkvmerge v7.2.0 ('On Every Street') 64bit built on Sep 13 2014 15:52:10
Writing library                : libebml v1.3.0 + libmatroska v1.4.1

Video
ID                             : 1
Format                         : HEVC
Format/Info                    : High Efficiency Video Coding
Format profile                 : Main@L5.0
Codec ID                       : V_MPEGH/ISO/HEVC
Bit rate                       : 2 080 Kbps
Width                          : 1 920 pixels
Height                         : 1 080 pixels
Display aspect ratio           : 16:9
Frame rate mode                : Variable
Original frame rate            : 23.976 fps
Color space                    : YUV
Chroma subsampling             : 4:2:0
Bit depth                      : 8 bits
Title                          : Source Encoder: BD50 - Papelillio
Writing library                : x265 1.5:[Windows][GCC 4.9.0][64 bit]
Encoding settings              : wpp / ctu=64 / tu-intra-depth=1 / tu-inter-depth=1 / me=3 / subme=4 / merange=57 / no-rect / no-amp / max-merge=2 / temporal-mvp / no-early-skip / no-fast-cbf / rdpenalty=0 / no-tskip / no-tskip-fast / strong-intra-smoothing / no-lossless / no-cu-lossless / no-constrained-intra / no-fast-intra / open-gop / interlace=0 / keyint=240 / min-keyint=24 / scenecut=40 / rc-lookahead=20 / bframes=5 / bframe-bias=0 / b-adapt=2 / ref=6 / weightp / no-weightb / aq-mode=1 / aq-strength=1.00 / cbqpoffs=0 / crqpoffs=0 / rd=3 / psy-rd=0.30 / psy-rdoq=0.00 / signhide / lft / sao / no-sao-non-deblock / b-pyramid / cutree / rc=crf / crf=20.0 / qcomp=0.60 / qpmin=0 / qpmax=51 / qpstep=4 / ipratio=1.40 / pbratio=1.30
Default                        : Yes
Forced                         : No
Color primaries                : BT.709
Transfer characteristics       : BT.709
Matrix coefficients            : BT.709
Color range                    : Limited
DURATION                       : 01:34:01.862000000
NUMBER_OF_FRAMES               : 135268
NUMBER_OF_BYTES                : 1506765713
_STATISTICS_WRITING_APP        : mkvmerge v7.2.0 ('On Every Street') 64bit built on Sep 13 2014 15:52:10
_STATISTICS_WRITING_DATE_UTC   : 2015-12-23 09:27:52
_STATISTICS_TAGS               : BPS DURATION NUMBER_OF_FRAMES NUMBER_OF_BYTES

Audio #1
ID                             : 2
Format                         : AC-3
Format/Info                    : Audio Coding 3
Mode extension                 : CM (complete main)
Format settings, Endianness    : Big
Codec ID                       : A_AC3
Duration                       : 1h 34mn
Bit rate mode                  : Constant
Bit rate                       : 640 Kbps
Channel(s)                     : 6 channels
Channel positions              : Front: L C R, Side: L R, LFE
Sampling rate                  : 48.0 KHz
Bit depth                      : 16 bits
Compression mode               : Lossy
Delay relative to video        : -5ms
Stream size                    : 430 MiB (19%)
Title                          : Audio Español Latino @640Kbps - Papelillio
Language                       : Spanish
Default                        : Yes
Forced                         : No
DURATION                       : 01:34:01.824000000
NUMBER_OF_FRAMES               : 176307
NUMBER_OF_BYTES                : 451345920
_STATISTICS_WRITING_APP        : mkvmerge v7.2.0 ('On Every Street') 64bit built on Sep 13 2014 15:52:10
_STATISTICS_WRITING_DATE_UTC   : 2015-12-23 09:27:52
_STATISTICS_TAGS               : BPS DURATION NUMBER_OF_FRAMES NUMBER_OF_BYTES

Audio #2
ID                             : 3
Format                         : AC-3
Format/Info                    : Audio Coding 3
Mode extension                 : CM (complete main)
Format settings, Endianness    : Big
Codec ID                       : A_AC3
Duration                       : 1h 34mn
Bit rate mode                  : Constant
Bit rate                       : 640 Kbps
Channel(s)                     : 6 channels
Channel positions              : Front: L C R, Side: L R, LFE
Sampling rate                  : 48.0 KHz
Bit depth                      : 16 bits
Compression mode               : Lossy
Delay relative to video        : -5ms
Stream size                    : 430 MiB (19%)
Title                          : Audio English @640Kbps - Papelillio
Language                       : English
Default                        : No
Forced                         : No
DURATION                       : 01:34:01.824000000
NUMBER_OF_FRAMES               : 176307
NUMBER_OF_BYTES                : 451345920
_STATISTICS_WRITING_APP        : mkvmerge v7.2.0 ('On Every Street') 64bit built on Sep 13 2014 15:52:10
_STATISTICS_WRITING_DATE_UTC   : 2015-12-23 09:27:52
_STATISTICS_TAGS               : BPS DURATION NUMBER_OF_FRAMES NUMBER_OF_BYTES

Text
ID                             : 4
Format                         : PGS
Muxing mode                    : zlib
Codec ID                       : S_HDMV/PGS
Codec ID/Info                  : Picture based subtitle format used on BDs/HD-DVDs
Title                          : Subtítulos Español Latino (PGS) - Papelillio
Language                       : Spanish
Default                        : No
Forced                         : No
DURATION                       : 01:32:57.656000000
NUMBER_OF_FRAMES               : 2245
NUMBER_OF_BYTES                : 6938810
_STATISTICS_WRITING_APP        : mkvmerge v7.2.0 ('On Every Street') 64bit built on Sep 13 2014 15:52:10
_STATISTICS_WRITING_DATE_UTC   : 2015-12-23 09:27:52
_STATISTICS_TAGS               : BPS DURATION NUMBER_OF_FRAMES NUMBER_OF_BYTES

Download Links

CONTRASEÑA PARA DESCOMPRIMIR

APORTES NUEVOS

cinemaniahdd.com

APORTES VIEJOS

CinemaniaHD.org

COMPRA O RENUEVA TU PREMIUM DE UPLOADED DESDE EL SIGUIENTE LINK:

http://ul.to/ref/9821430

SI GUSTAS PUEDES SEGUIRNOS EN LAS REDES SOCIALES

Facebook

Twitter

Post Relacionados