Actualmente tenemos 4567 para descargar peliculas gratis 1080p latino

Marcianos Al Ataque (1996) 1080p FULL Latino-Ingles

Fuerza Antiganser

Titulo Original: Mars Attacks! 1080p

1080p | 1920x1080 | MKV | H.264 | Encoder bythe_rock | 3.5 GB | 1:45:55 min | Audio: Español Latino (AC3 2.0 BD) - Ingles (AC3 5.1 BD)  | Subtitulos: Si | Ciencia ficción. Comedia | 1996 | 5% Registro de Recuperacion (Reparar Rar dañados)

[spoiler]

General
Complete name : Mars Attacks (1996) 1080p FULL Dual.mkv
Format : Matroska
Format version : Version 4 / Version 2
File size : 3.59 GiB
Duration : 1h 45mn
Overall bit rate : 4 855 Kbps
Movie name : Mars Attacks [1996][1080p FULL Dual][wWw.CinemaniaHD.org]
Encoded date : UTC 2014-08-25 09:26:30
Writing application : mkvmerge v6.9.1 ('Blue Panther') 64bit built on Apr 18 2014 18:23:38
Writing library : libebml v1.3.0 + libmatroska v1.4.1

Video
ID : 1
Format : AVC
Format/Info : Advanced Video Codec
Format profile : High@L4.1
Format settings, CABAC : Yes
Format settings, ReFrames : 2 frames
Codec ID : V_MPEG4/ISO/AVC
Duration : 1h 45mn
Bit rate : 3 862 Kbps
Width : 1 920 pixels
Height : 1 080 pixels
Display aspect ratio : 16:9
Frame rate mode : Constant
Frame rate : 23.976 fps
Color space : YUV
Chroma subsampling : 4:2:0
Bit depth : 8 bits
Scan type : Progressive
Bits/(Pixel*Frame) : 0.078
Stream size : 2.85 GiB (80%)
Title : wWw.CinemaniaHD.org
Writing library : x264 core
Default : Yes
Forced : No
Color primaries : BT.709
Transfer characteristics : BT.709
Matrix coefficients : BT.709

Audio #1
ID : 2
Format : AC-3
Format/Info : Audio Coding 3
Mode extension : CM (complete main)
Format settings, Endianness : Big
Codec ID : A_AC3
Duration : 1h 45mn
Bit rate mode : Constant
Bit rate : 448 Kbps
Channel(s) : 2 channels
Channel positions : Front: L R
Sampling rate : 48.0 KHz
Bit depth : 16 bits
Compression mode : Lossy
Delay relative to video : 3s 200ms
Stream size : 339 MiB (9%)
Title : Español Latino [wWw.CinemaniaHD.org]
Default : Yes
Forced : No

Audio #2
ID : 3
Format : AC-3
Format/Info : Audio Coding 3
Mode extension : CM (complete main)
Format settings, Endianness : Big
Codec ID : A_AC3
Duration : 1h 45mn
Bit rate mode : Constant
Bit rate : 448 Kbps
Channel(s) : 6 channels
Channel positions : Front: L C R, Side: L R, LFE
Sampling rate : 48.0 KHz
Bit depth : 16 bits
Compression mode : Lossy
Stream size : 339 MiB (9%)
Title : Ingles [wWw.CinemaniaHD.org]
Default : No
Forced : No

Text #1
ID : 4
Format : UTF-8
Codec ID : S_TEXT/UTF8
Codec ID/Info : UTF-8 Plain Text
Title : wWw.CinemaniaHD.org
Default : Yes
Forced : No

Text #2
ID : 5
Format : VobSub
Muxing mode : zlib
Codec ID : S_VOBSUB
Codec ID/Info : The same subtitle format used on DVDs
Title : Subtitulos Español [wWw.CinemaniaHD.org]
Default : No
Forced : No

Text #3
ID : 6
Format : VobSub
Muxing mode : zlib
Codec ID : S_VOBSUB
Codec ID/Info : The same subtitle format used on DVDs
Title : Subtitulos Ingles [wWw.CinemaniaHD.org]
Default : No
Forced : No

[/spoiler]

Parodia de los filmes de ciencia ficción de los años 50. Unos platillos volantes procedentes de Marte sobrevuelan todas las capitales del mundo. La población, aterrada, espera conocer sus intenciones. Al presidente de los Estados Unidos, su asesor científico le asegura que serán absolutamente pacíficas. Sin embargo, sus asesores militares le aconsejan que aniquile a los marcianos antes de que sea demasiado tarde.

http://www.youtube.com/watch?v=VYHeZCEFwhI

Links Intercambiables

Publicos

 


COMPRA TU CUENTA PREMIUM DESDE LOS SIGUIENTES ENLACES:

UPLOADED.TO >>>  Click Aqui

FREAKSHARE >>>  Click Aqui

Post Relacionados