Actualmente tenemos 3499 peliculas en nuestro sitio.

Ninja Asesino (2009) FULL 1080p Latino-Ingles


Descargar Ahora

Ninja_Assassin

Ficha

Titulo Original: Ninja Assassin

1080p | 1920x1080 | MKV | H.264 | Encoder by: CinemaniaHD | 2.6 GB | 01:38:40 min | Audio: Español Latino (AC3 5.1 DVD) - Ingles (AC3 5.1 BD)  | Subtitulos: Español Latino -Ingles + Aparte | Acción | 2009 | 5% Registro de Recuperacion (Reparar Rar dañados)

MediaInfo:

[spoiler]

General
Ninja Assassin (2009) [FULL 1080p Dual] CinemaniaHD.mkv
Format : Matroska
Format version : Version 4 / Version 2
File size : 2.65 GiB
Duration : 1h 38mn
Overall bit rate : 3 843 Kbps
Movie name : Ninja Assassin (2009) [FULL 1080p Dual] CinemaniaHD
Encoded date : UTC 2014-01-03 19:00:27
Writing application : mkvmerge v6.0.0 ('Coming Up For Air') built on Jan 20 2013 09:52:00
Writing library : libebml v1.3.0 + libmatroska v1.4.0

Video
ID : 1
Format : AVC
Format/Info : Advanced Video Codec
Format profile : [email protected]
Format settings, CABAC : Yes
Format settings, ReFrames : 2 frames
Codec ID : V_MPEG4/ISO/AVC
Duration : 1h 38mn
Bit rate : 2 934 Kbps
Width : 1 920 pixels
Height : 1 080 pixels
Display aspect ratio : 16:9
Frame rate mode : Constant
Frame rate : 23.976 fps
Color space : YUV
Chroma subsampling : 4:2:0
Bit depth : 8 bits
Scan type : Progressive
Bits/(Pixel*Frame) : 0.059
Stream size : 2.02 GiB (76%)
Title : WwW.CinemaniaHD.org
Writing library : x264 core
Default : Yes
Forced : No
Color primaries : BT.709
Transfer characteristics : BT.709
Matrix coefficients : BT.709

Audio #1
ID : 2
Format : AC-3
Format/Info : Audio Coding 3
Mode extension : CM (complete main)
Format settings, Endianness : Big
Codec ID : A_AC3
Duration : 1h 38mn
Bit rate mode : Constant
Bit rate : 384 Kbps
Channel count : 6 channels
Channel positions : Front: L C R, Side: L R, LFE
Sampling rate : 48.0 KHz
Bit depth : 16 bits
Compression mode : Lossy
Delay relative to video : 1s 0ms
Stream size : 271 MiB (10%)
Title : Audio Latino [WwW.CinemaniaHD.org]
Default : Yes
Forced : No

Audio #2
ID : 3
Format : AC-3
Format/Info : Audio Coding 3
Mode extension : CM (complete main)
Format settings, Endianness : Big
Codec ID : A_AC3
Duration : 1h 38mn
Bit rate mode : Constant
Bit rate : 448 Kbps
Channel count : 6 channels
Channel positions : Front: L C R, Side: L R, LFE
Sampling rate : 48.0 KHz
Bit depth : 16 bits
Compression mode : Lossy
Stream size : 316 MiB (12%)
Title : Audio Ingles [WwW.CinemaniaHD
Default : No
Forced : No

Text #1
ID : 4
Format : UTF-8
Codec ID : S_TEXT/UTF8
Codec ID/Info : UTF-8 Plain Text
Title : Subtitulos Latino [WwW.CinemaniaHD.org]
Default : No
Forced : No

Text #2
ID : 5
Format : UTF-8
Codec ID : S_TEXT/UTF8
Codec ID/Info : UTF-8 Plain Text
Title : Subtitulos Ingles [WwW.CinemaniaHD.org]
Default : No
Forced : No

Text #3
ID : 6
Format : UTF-8
Codec ID : S_TEXT/UTF8
Codec ID/Info : UTF-8 Plain Text
Title : WwW.CinemaniaHD.org
Default : Yes
Forced : No

 

[/spoiler]

Sinopsis

Raizo (Rain) es un niño de la calle al que el Clan Ozunu transforma en una máquina programada para matar; pero, cuando el Clan asesina a uno de sus amigos, Raizo desaparece y prepara su venganza. En Berlin, la agente de Europol Mika Coretti (Naomie Harris) ha encontrado una pista que demuestra que los responsables de algunos asesinatos políticos son asesinos del Lejano Oriente. Cuando el Clan se entera ordena su muerte, pero Raizo consigue salvarla, aunque en adelante el Clan no descansará hasta que ambos sean eliminados.

Capturas

Trailer

http://www.youtube.com/watch?v=NhYH26KTNbQ

DESCARGAR

Links Intercambiables

 

Publicos

 


 

COMPRA TU CUENTA PREMIUM DESDE LOS SIGUIENTES ENLACES:

UPLOADED.TO >>>  Click Aqui

FREAKSHARE >>>  Click Aqui

 LETITBIT >>> Click Aqui 

FileMonkey >>> Click Aqui

Post Relacionados