Actualmente tenemos 4567 para descargar peliculas gratis 1080p latino

Noche De Miedo (2011) Dual Latino-Ingles

Noche de Miedo (2011) 1080p Audio Latino Ingles

Noche de miedo

Ficha

Titulo Original: Fright Night

1080p | 1920x1080 | MKV | H.264 | Encoder by: CinemaniaHD | AC3 5.1 | 2.3 GB | 1:45:57 min | Audio: Español Latino-Ingles  | Subtitulos: Español Latino + Aparte SRT | Fantástico. Comedia. Terror | 2011 | 5% Registro de Recuperacion (Reparar Rar dañados)

MediaInfo:

[spoiler]

General
Complete name : Noche De Miedo (2011) 1080p Dual.mkv
Format : Matroska
Format version : Version 4 / Version 2
File size : 2.37 GiB
Duration : 1h 45mn
Overall bit rate : 3 206 Kbps
Movie name : Fright Night [2011][1080p Dual][wWw.CinemaniaHD.org]
Encoded date : UTC 2013-10-05 18:59:14
Writing application : mkvmerge v6.4.1 ('Omega Point') built on Sep 16 2013 22:05:10
Writing library : libebml v1.3.0 + libmatroska v1.4.1

Video
ID : 1
Format : AVC
Format/Info : Advanced Video Codec
Format profile : High@L4.0
Format settings, CABAC : Yes
Format settings, ReFrames : 4 frames
Codec ID : V_MPEG4/ISO/AVC
Duration : 1h 45mn
Bit rate : 2 308 Kbps
Width : 1 920 pixels
Height : 1 080 pixels
Display aspect ratio : 16:9
Frame rate mode : Constant
Frame rate : 23.976 fps
Color space : YUV
Chroma subsampling : 4:2:0
Bit depth : 8 bits
Scan type : Progressive
Bits/(Pixel*Frame) : 0.047
Stream size : 1.66 GiB (70%)
Title : wWw.CinemaniaHD.org
Writing library : x264 core 133 r2334 a3ac64b
Encoding settings : cabac=1 / ref=3 / deblock=1:0:0 / analyse=0x3:0x113 / me=hex / subme=7 / psy=1 / psy_rd=1.00:0.00 / mixed_ref=1 / me_range=16 / chroma_me=1 / trellis=1 / 8x8dct=1 / cqm=0 / deadzone=21,11 / fast_pskip=1 / chroma_qp_offset=-2 / threads=12 / lookahead_threads=2 / sliced_threads=0 / nr=0 / decimate=1 / interlaced=0 / bluray_compat=0 / constrained_intra=0 / bframes=3 / b_pyramid=2 / b_adapt=1 / b_bias=0 / direct=1 / weightb=1 / open_gop=0 / weightp=2 / keyint=240 / keyint_min=23 / scenecut=40 / intra_refresh=0 / rc_lookahead=40 / rc=2pass / mbtree=1 / bitrate=2308 / ratetol=1.0 / qcomp=0.60 / qpmin=0 / qpmax=69 / qpstep=4 / cplxblur=20.0 / qblur=0.5 / ip_ratio=1.40 / aq=1:1.00
Default : Yes
Forced : No

Audio #1
ID : 2
Format : AC-3
Format/Info : Audio Coding 3
Mode extension : CM (complete main)
Format settings, Endianness : Big
Codec ID : A_AC3
Duration : 1h 45mn
Bit rate mode : Constant
Bit rate : 448 Kbps
Channel count : 6 channels
Channel positions : Front: L C R, Side: L R, LFE
Sampling rate : 48.0 KHz
Bit depth : 16 bits
Compression mode : Lossy
Stream size : 340 MiB (14%)
Title : Español Latino [wWw.CinemaniaHD.org]
Default : Yes
Forced : No

Audio #2
ID : 3
Format : AC-3
Format/Info : Audio Coding 3
Mode extension : CM (complete main)
Format settings, Endianness : Big
Codec ID : A_AC3
Duration : 1h 45mn
Bit rate mode : Constant
Bit rate : 448 Kbps
Channel count : 6 channels
Channel positions : Front: L C R, Side: L R, LFE
Sampling rate : 48.0 KHz
Bit depth : 16 bits
Compression mode : Lossy
Stream size : 340 MiB (14%)
Title : Ingles [wWw.CinemaniaHD.org]
Default : No
Forced : No

Text #1
ID : 4
Format : UTF-8
Codec ID : S_TEXT/UTF8
Codec ID/Info : UTF-8 Plain Text
Default : Yes
Forced : No

Text #2
ID : 5
Format : UTF-8
Codec ID : S_TEXT/UTF8
Codec ID/Info : UTF-8 Plain Text
Title : Subtitulos Español [wWw.CinemaniaHD.org]
Default : No
Forced : No

[/spoiler]

Sinopsis

Durante el último curso en el instituto, Charlie Brewster (Anton Yelchin) parece haber alcanzado todos sus objetivos: es un brillante estudiante y sale con la chica más deseada. Sin embargo, por culpa de su popularidad, ha comenzado a dejar de lado a su mejor amigo. Al mismo tiempo un tal Jerry (Colin Farrell) se convierte en su vecino y, aunque al principio, le parece un tipo genial, pronto empieza a percibir en él algo extraño. Desgraciadamente nadie, ni siquiera la madre de Charlie (Toni Collette), se da cuenta de nada. Después de observar que en la casa de Jerry pasan cosas extrañas, Charlie llega a la conclusión de que su vecino es un vampiro que se sirve del vecindario para cazar a sus presas. Ante la incredulidad de los demás, Charlie tendrá que ingeniárselas para eliminar al monstruo por sus propios medios.

Capturas

 




Trailer

http://www.youtube.com/watch?v=sUipgKdTi_k

DESCARGAR

[ocultar]

Links Intercambiables

BillonUploads - PutLocker - Mega - Freakshare - Uploaded.to - Uptobox

Links

LINKS DIRECTOS MEGA Y PUTLOCKER >Usuaios V.I.P.

Links

PASSWORD

CinemaniaHD.org

[/ocultar]

Post Relacionados