Actualmente tenemos 4570 para descargar peliculas gratis 1080p latino

Parque Jurásico (1993) 1080p FULL HD Dual Latino

El multimillonario John Hammond consigue hacer realidad su sueño de clonar dinosaurios del Jurásico y crear con ellos un parque temático en una isla remota. Antes de abrirlo al público, invita a una pareja de eminentes científicos y a un matemático para que comprueben la viabilidad del proyecto. Pero las medidas de seguridad del parque no prevén el instinto de supervivencia de la madre naturaleza ni la codicia humana.



Titulo Original Jurassic Park
Año 1993
Duracion 121 min.
Guion
Director Steven Spielberg
Musica John Williams
Photografia Dean Cundey
Reparto Sam Neill, Laura Dern, Jeff Goldblum, Richard Attenborough, Ariana Richards, Joseph Mazzello, Wayne Knight, Samuel L. Jackson, Bob Peck, Martin Ferrero, BD Wong, Miguel Sandoval, Gerald R. Molen
Productora Sam Neill, Laura Dern, Jeff Goldblum, Richard Attenborough, Ariana Richards, Joseph Mazzello, Wayne Knight, Samuel L. Jackson, Bob Peck, Martin Ferrero, BD Wong, Miguel Sandoval, Gerald R. Molen
Genero
Titulo original Jurassic Park (1993) 1080p FULL HD Dual Latino
Titulo Latino Parque Jurásico (1993) 1080p FULL HD Dual Latino
Otros Titulos Parque Jurásico (1993) 1080p FULL HD Dual Latino
Audio Español Latino [DTS 5.1 BD] - Inglés [DTS 5.1 BD]
Calidad: FULL HD 1080p Resolucion: 1920x1080p Formato: MKV
Codec: H.264 Encoder: ADDKiQ Peso: 9.1 GB
Subtitulos: Español Latino [PGS] - Ingles [PGS] Duracion: 121 min. Capitulos:
  • No hay video embed hola

General
Unique ID : 217882980724873815672091690735933175050 (0xA3EABC568290A50AB6FD551F5F5DB50A)
Complete name : P:\Video\Video\Jurassic.Park.1993.1080p.VC-1.Latino\JURASSIC_PARK CINEMANIAHDD.COM.mkv
Format : Matroska
Format version : Version 2
File size : 9.19 GiB
Duration : 2h 6mn
Overall bit rate : 10.4 Mbps
Movie name : JURASSIC_PARK.Title800
Encoded date : UTC 2016-02-02 00:03:07
Writing application : DVDFab 9.2.2.4
Writing library : libebml v0.7.8 + libmatroska v0.8.1

Video
ID : 1
Format : AVC
Format/Info : Advanced Video Codec
Format profile : High@L4.1
Format settings, CABAC : Yes
Format settings, ReFrames : 2 frames
Codec ID : V_MPEG4/ISO/AVC
Duration : 2h 6mn
Bit rate : 8 055 Kbps
Width : 1 920 pixels
Height : 1 080 pixels
Display aspect ratio : 16:9
Frame rate mode : Constant
Frame rate : 23.976 (24000/1001) fps
Color space : YUV
Chroma subsampling : 4:2:0
Bit depth : 8 bits
Scan type : Progressive
Bits/(Pixel*Frame) : 0.162
Stream size : 6.99 GiB (76%)
Writing library : x264 core 142
Encoding settings : cabac=1 / ref=1 / deblock=1:-1:-1 / analyse=0x3:0 / me=hex / subme=5 / psy=0 / mixed_ref=0 / me_range=16 / chroma_me=1 / trellis=0 / 8x8dct=1 / cqm=0 / deadzone=21,11 / fast_pskip=1 / chroma_qp_offset=0 / threads=24 / lookahead_threads=6 / sliced_threads=0 / nr=0 / decimate=1 / interlaced=0 / bluray_compat=0 / constrained_intra=0 / bframes=2 / b_pyramid=0 / b_adapt=1 / b_bias=0 / direct=1 / weightb=1 / open_gop=0 / weightp=0 / keyint=24 / keyint_min=13 / scenecut=40 / intra_refresh=0 / rc=2pass / mbtree=0 / bitrate=8055 / ratetol=1.0 / qcomp=0.60 / qpmin=0 / qpmax=69 / qpstep=4 / cplxblur=20.0 / qblur=0.5 / ip_ratio=1.40 / pb_ratio=1.30 / aq=1:1.00
Default : Yes
Forced : No
Color range : Limited
Color primaries : BT.709
Transfer characteristics : BT.709
Matrix coefficients : BT.709

Audio #1
ID : 2
Format : DTS
Format/Info : Digital Theater Systems
Mode : 16
Format settings, Endianness : Big
Codec ID : A_DTS
Duration : 2h 6mn
Bit rate mode : Constant
Bit rate : 768 Kbps
Channel(s) : 6 channels
Channel positions : Front: L C R, Side: L R, LFE
Sampling rate : 48.0 KHz
Frame rate : 93.750 fps (512 spf)
Bit depth : 24 bits
Compression mode : Lossy
Stream size : 695 MiB (7%)
Language : Spanish
Default : Yes
Forced : No

Audio #2
ID : 3
Format : DTS
Format/Info : Digital Theater Systems
Mode : 16
Format settings, Endianness : Big
Codec ID : A_DTS
Duration : 2h 6mn
Bit rate mode : Constant
Bit rate : 1 509 Kbps
Channel(s) : 6 channels
Channel positions : Front: L C R, Side: L R, LFE
Sampling rate : 48.0 KHz
Frame rate : 93.750 fps (512 spf)
Bit depth : 24 bits
Compression mode : Lossy
Stream size : 1.33 GiB (15%)
Language : English
Default : No
Forced : No

Text #1
ID : 4
Format : PGS
Codec ID : S_HDMV/PGS
Codec ID/Info : Picture based subtitle format used on BDs/HD-DVDs
Language : English
Default : No
Forced : No

Text #2
ID : 5
Format : PGS
Codec ID : S_HDMV/PGS
Codec ID/Info : Picture based subtitle format used on BDs/HD-DVDs
Language : Spanish
Default : No
Forced : No

Text #3
ID : 6
Format : PGS
Codec ID : S_HDMV/PGS
Codec ID/Info : Picture based subtitle format used on BDs/HD-DVDs
Language : Spanish
Default : No
Forced : No

Text #4
ID : 7
Format : PGS
Codec ID : S_HDMV/PGS
Codec ID/Info : Picture based subtitle format used on BDs/HD-DVDs
Language : English
Default : No
Forced : No

Text #5
ID : 8
Format : PGS
Codec ID : S_HDMV/PGS
Codec ID/Info : Picture based subtitle format used on BDs/HD-DVDs
Language : Spanish
Default : No
Forced : No

Text #6
ID : 9
Format : PGS
Codec ID : S_HDMV/PGS
Codec ID/Info : Picture based subtitle format used on BDs/HD-DVDs
Language : Spanish
Default : No
Forced : No

Menu
00:00:00.000 : en:(01)00:00:00:000
00:05:19.819 : en:(02)00:05:19:819
00:10:14.739 : en:(03)00:10:14:739
00:15:17.041 : en:(04)00:15:17:041
00:19:33.213 : en:(05)00:19:33:213
00:23:46.800 : en:(06)00:23:46:800
00:31:40.148 : en:(07)00:31:40:148
00:37:59.193 : en:(08)00:37:59:193
00:40:26.674 : en:(09)00:40:26:674
00:55:28.033 : en:(10)00:55:28:033
01:01:43.241 : en:(11)01:01:43:241
01:10:44.114 : en:(12)01:10:44:114
01:20:01.129 : en:(13)01:20:01:129
01:34:03.971 : en:(14)01:34:03:971
01:39:45.312 : en:(15)01:39:45:312
01:43:43.175 : en:(16)01:43:43:175
01:47:56.845 : en:(17)01:47:56:845
01:54:45.378 : en:(18)01:54:45:378
01:58:04.410 : en:(19)01:58:04:410
01:59:55.980 : en:(20)01:59:55:980
02:06:36.338 : en:(21)02:06:36:338

Download Links

CONTRASEÑA PARA DESCOMPRIMIR

APORTES NUEVOS

cinemaniahdd.com

APORTES VIEJOS

CinemaniaHD.org

COMPRA O RENUEVA TU PREMIUM DE UPLOADED DESDE EL SIGUIENTE LINK:

http://ul.to/ref/9821430

SI GUSTAS PUEDES SEGUIRNOS EN LAS REDES SOCIALES

Facebook

Twitter

Post Relacionados