Actualmente tenemos 4567 para descargar peliculas gratis 1080p latino

The Birth of a Nation (2016) 1080p BluRay x265 HEVC DTS Dual Latino

el-nacimiento-de-una-nacion-x265
Narra la historia real de Nat Turner, un predicador y ex esclavo que, tras presenciar innumerables atrocidades, liderará en Virginia en 1831 una rebelión contra la esclavitud.


Titulo Original The Birth of a Nation
Año 2016-09-09
Duracion
Guion Nate Parker (screenplay), Nate Parker (story by), Jean McGianni Celestin (story by)
Director Nate Parker
Musica
Photografia
Reparto Nate Parker, Armie Hammer, Penelope Ann Miller, Jackie Earle Haley
Productora Phantom Four, Mandalay Pictures, Bron Studios, Tiny Giant Entertainment,
Genero Drama,
Titulo original The Birth of a Nation
Titulo Latino El Nacimiento De Una Nación
Otros Titulos
Audio Español Latino AC3 5.1 - Inglés DTS 5.1
Calidad: FULL HD 1080p Resolucion: 1920x1080 Formato: MKV
Codec: H.265 Encoder: SebastianHDx Peso: 3.10 GB
Subtitulos: Español Latino (PGS/SRT) - Forzados (SRT) Duracion: 2h Capitulos:
  • No hay video embed hola

The.Birth.of.a.Nation.2016.1080p.BluRay.x265.HEVC.DTS.Dual.Latino-Papelillio.mkv
Format : Matroska
Format version : Version 4 / Version 2
File size : 3.10 GiB
Duration : 1h 59mn
Overall bit rate : 3 702 Kbps
Encoded date : UTC 2016-12-26 02:19:09
Writing application : mkvmerge v7.4.0 ('Circles') 64bit built on Dec 12 2014 12:19:56
Writing library : libebml v1.3.0 + libmatroska v1.4.1
DURATION : 01:14:40.391000000
NUMBER_OF_FRAMES : 34
NUMBER_OF_BYTES : 1229
_STATISTICS_WRITING_APP : mkvmerge v7.4.0 ('Circles') 64bit built on Dec 12 2014 12:19:56
_STATISTICS_WRITING_DATE_UT : 2016-12-26 02:19:09
_STATISTICS_TAGS : BPS DURATION NUMBER_OF_FRAMES NUMBER_OF_BYTES

Video
ID : 1
Format : HEVC
Format/Info : High Efficiency Video Coding
Format profile : Main@L4@Main
Codec ID : V_MPEGH/ISO/HEVC
Duration : 1h 59mn
Bit rate : 1 672 Kbps
Width : 1 920 pixels
Height : 1 080 pixels
Display aspect ratio : 16:9
Frame rate mode : Constant
Frame rate : 23.976 fps
Color space : YUV
Chroma subsampling : 4:2:0
Bit depth : 8 bits
Bits/(Pixel*Frame) : 0.034
Stream size : 1.40 GiB (45%)
Title : Fuente Encodeo: BD50 - Papelillio
Writing library : x265 1.9:[Windows][GCC 4.9.0][64 bit] 8bit
Encoding settings : wpp / ctu=64 / min-cu-size=8 / max-tu-size=32 / tu-intra-depth=1 / tu-inter-depth=1 / me=3 / subme=3 / merange=57 / rect / no-amp / max-merge=3 / temporal-mvp / no-early-skip / rdpenalty=0 / no-tskip / no-tskip-fast / strong-intra-smoothing / no-lossless / no-cu-lossless / no-constrained-intra / no-fast-intra / open-gop / no-temporal-layers / interlace=0 / keyint=240 / min-keyint=24 / scenecut=40 / rc-lookahead=25 / lookahead-slices=4 / bframes=4 / bframe-bias=0 / b-adapt=2 / ref=4 / limit-refs=3 / limit-modes / weightp / no-weightb / aq-mode=1 / qg-size=32 / aq-strength=1.00 / cbqpoffs=0 / crqpoffs=0 / rd=4 / psy-rd=2.00 / rdoq-level=2 / psy-rdoq=1.00 / signhide / deblock / sao / no-sao-non-deblock / b-pyramid / cutree / no-intra-refresh / rc=crf / crf=20.0 / qcomp=0.60 / qpmin=0 / qpmax=51 / qpstep=4 / ipratio=1.40 / pbratio=1.30
Default : Yes
Forced : No
Color range : Limited
Color primaries : BT.709
Transfer characteristics : BT.709
Matrix coefficients : BT.709
DURATION : 01:59:53.186000000
NUMBER_OF_FRAMES : 172464
NUMBER_OF_BYTES : 1561198198
_STATISTICS_WRITING_APP : mkvmerge v7.4.0 ('Circles') 64bit built on Dec 12 2014 12:19:56
_STATISTICS_WRITING_DATE_UT : 2016-12-26 02:19:09
_STATISTICS_TAGS : BPS DURATION NUMBER_OF_FRAMES NUMBER_OF_BYTES

Audio #1
ID : 2
Format : AC-3
Format/Info : Audio Coding 3
Mode extension : CM (complete main)
Format settings, Endianness : Big
Codec ID : A_AC3
Duration : 1h 59mn
Bit rate mode : Constant
Bit rate : 448 Kbps
Channel(s) : 6 channels
Channel positions : Front: L C R, Side: L R, LFE
Sampling rate : 48.0 KHz
Compression mode : Lossy
Delay relative to video : -83ms
Stream size : 384 MiB (12%)
Title : Audio Español Latino AC3 5.1 @448Kbps - Papelillio
Language : Spanish
Default : Yes
Forced : No

Audio #2
ID : 3
Format : DTS
Format/Info : Digital Theater Systems
Mode : 16
Format settings, Endianness : Big
Codec ID : A_DTS
Duration : 1h 59mn
Bit rate mode : Constant
Bit rate : 1 509 Kbps
Channel(s) : 6 channels
Channel positions : Front: L C R, Side: L R, LFE
Sampling rate : 48.0 KHz
Bit depth : 24 bits
Compression mode : Lossy
Delay relative to video : -83ms
Stream size : 1.26 GiB (41%)
Title : Audio Inglés DTS 5.1 @1509Kbps - Papelillio
Language : English
Default : No
Forced : No

Text #1
ID : 4
Format : UTF-8
Codec ID : S_TEXT/UTF8
Codec ID/Info : UTF-8 Plain Text
Title : Subtítulos Español Latino - Forzados (SRT) - Papelillio
Language : Spanish
Default : Yes
Forced : No

Text #2
ID : 5
Format : UTF-8
Codec ID : S_TEXT/UTF8
Codec ID/Info : UTF-8 Plain Text
Title : Subtítulos Español Latino (SRT) - Papelillio
Language : Spanish
Default : No
Forced : No

Text #3
ID : 6
Format : PGS
Muxing mode : zlib
Codec ID : S_HDMV/PGS
Codec ID/Info : Picture based subtitle format used on BDs/HD-DVDs
Title : Subtítulos Español Latino (PGS) - Papelillio
Language : Spanish
Default : No
Forced : No

Menu
00:00:00.000 : :Chapter 1
00:04:18.841 : :Chapter 2
00:07:45.423 : :Chapter 3
00:10:05.146 : :Chapter 4
00:14:37.960 : :Chapter 5
00:17:42.895 : :Chapter 6
00:23:07.010 : :Chapter 7
00:28:35.255 : :Chapter 8
00:32:14.057 : :Chapter 9
00:37:09.310 : :Chapter 10
00:39:50.513 : :Chapter 11
00:42:53.654 : :Chapter 12
00:46:46.470 : :Chapter 13
00:51:11.234 : :Chapter 14
00:54:41.236 : :Chapter 15
00:59:01.496 : :Chapter 16
01:03:21.798 : :Chapter 17
01:08:42.284 : :Chapter 18
01:13:05.506 : :Chapter 19
01:17:02.993 : :Chapter 20
01:22:13.178 : :Chapter 21
01:26:57.003 : :Chapter 22
01:30:54.824 : :Chapter 23
01:37:59.123 : :Chapter 24
01:41:43.055 : :Chapter 25
01:43:57.731 : :Chapter 26
01:47:26.022 : :Chapter 27
01:50:40.592 : :Chapter 28

Download Links

CONTRASEÑA PARA DESCOMPRIMIR

APORTES NUEVOS

cinemaniahdd.com

APORTES VIEJOS

CinemaniaHD.org

COMPRA O RENUEVA TU PREMIUM DE UPLOADED DESDE EL SIGUIENTE LINK:

http://ul.to/ref/9821430

SI GUSTAS PUEDES SEGUIRNOS EN LAS REDES SOCIALES

Facebook

Twitter

Post Relacionados