Actualmente tenemos 4567 para descargar peliculas gratis 1080p latino

Thor (2011) 1080p FULL HD Latino

Thor es un arrogante y codicioso guerrero cuya imprudencia desata una antigua guerra. Por ese motivo, su padre Odín lo castiga desterrándolo a la Tierra para que viva entre los hombres y descubra así el verdadero sentido de la humildad. Cuando el villano más peligroso de su mundo envía a la Tierra a las fuerzas más oscuras de Asgard, Thor se dará cuenta de lo que realmente hace falta para ser un verdadero héroe.



Titulo Original Thor
Año 2011
Duracion 110 min.
Guion
Director Kenneth Branagh
Musica Patrick Doyle
Photografia Haris Zambarloukos
Reparto Chris Hemsworth, Natalie Portman, Tom Hiddleston, Anthony Hopkins, Stellan Skarsgård, Jaimie Alexander, Ray Stevenson, Idris Elba, Kat Dennings, Colm Feore, Clark Gregg, Josh Dallas, Tadanobu Asano, Rene Russo, Maximiliano Hernández, Jeremy Renner, Samuel L. Jackson, Dakota Goyo
Productora Chris Hemsworth, Natalie Portman, Tom Hiddleston, Anthony Hopkins, Stellan Skarsgård, Jaimie Alexander, Ray Stevenson, Idris Elba, Kat Dennings, Colm Feore, Clark Gregg, Josh Dallas, Tadanobu Asano, Rene Russo, Maximiliano Hernández, Jeremy Renner, Samuel L. Jackson, Dakota Goyo
Genero
Titulo original Thor (2011) 1080p FULL HD Latino
Titulo Latino Thor (2011) 1080p FULL HD Latino
Otros Titulos Thor (2011) 1080p FULL HD Latino
Audio Español Latino [AC3 5.1 BD] - Ingles [AC3 5.1 BD]
Calidad: FULL HD 1080p Resolucion: 1920x1080p Formato: MKV
Codec: H.264 Encoder: ADDKiQ Peso: 10.7 GB
Subtitulos: Español Latino [PGS] - Ingles [PGS] Duracion: 110 min. Capitulos:
  • No hay video embed hola

General
Complete name : P:\Video\Video\Thor BD25 TDF\THOR [www.cinemaniahdd.com].mkv
Format : Matroska
Format version : Version 4 / Version 2
File size : 10.7 GiB
Duration : 1h 54mn
Overall bit rate : 13.4 Mbps
Movie name : THOR [www.cinemaniahdd.com]
Encoded date : UTC 2016-02-12 01:13:06
Writing application : mkvmerge v7.9.0 ('Birds') 64bit
Writing library : libebml v1.3.1 + libmatroska v1.4.2

Video
ID : 1
Format : AVC
Format/Info : Advanced Video Codec
Format profile : High@L4.1
Format settings, CABAC : Yes
Format settings, ReFrames : 2 frames
Codec ID : V_MPEG4/ISO/AVC
Duration : 1h 54mn
Bit rate : 12.1 Mbps
Width : 1 920 pixels
Height : 1 080 pixels
Display aspect ratio : 16:9
Frame rate mode : Constant
Frame rate : 23.976 (24000/1001) fps
Color space : YUV
Chroma subsampling : 4:2:0
Bit depth : 8 bits
Scan type : Progressive
Bits/(Pixel*Frame) : 0.243
Stream size : 9.69 GiB (90%)
Title : [www.cinemaniahdd.com]
Writing library : x264 core 142
Encoding settings : cabac=1 / ref=1 / deblock=1:-1:-1 / analyse=0x3:0 / me=hex / subme=5 / psy=0 / mixed_ref=0 / me_range=16 / chroma_me=1 / trellis=0 / 8x8dct=1 / cqm=0 / deadzone=21,11 / fast_pskip=1 / chroma_qp_offset=0 / threads=24 / lookahead_threads=6 / sliced_threads=0 / nr=0 / decimate=1 / interlaced=0 / bluray_compat=0 / constrained_intra=0 / bframes=2 / b_pyramid=0 / b_adapt=1 / b_bias=0 / direct=1 / weightb=1 / open_gop=0 / weightp=0 / keyint=24 / keyint_min=13 / scenecut=40 / intra_refresh=0 / rc=crf / mbtree=0 / crf=20.0 / qcomp=0.60 / qpmin=0 / qpmax=69 / qpstep=4 / ip_ratio=1.40 / pb_ratio=1.30 / aq=1:1.00
Default : Yes
Forced : No
Color range : Limited
Color primaries : BT.709
Transfer characteristics : BT.709
Matrix coefficients : BT.709

Audio #1
ID : 2
Format : AC-3
Format/Info : Audio Coding 3
Mode extension : CM (complete main)
Format settings, Endianness : Big
Codec ID : A_AC3
Duration : 1h 54mn
Bit rate mode : Constant
Bit rate : 640 Kbps
Channel(s) : 6 channels
Channel positions : Front: L C R, Side: L R, LFE
Sampling rate : 48.0 KHz
Frame rate : 31.250 fps (1536 spf)
Compression mode : Lossy
Stream size : 526 MiB (5%)
Title : LATINO [www.cinemaniahdd.com]
Language : Spanish
Default : Yes
Forced : No

Audio #2
ID : 3
Format : AC-3
Format/Info : Audio Coding 3
Mode extension : CM (complete main)
Format settings, Endianness : Big
Codec ID : A_AC3
Duration : 1h 54mn
Bit rate mode : Constant
Bit rate : 640 Kbps
Channel(s) : 6 channels
Channel positions : Front: L C R, Side: L R, LFE
Sampling rate : 48.0 KHz
Frame rate : 31.250 fps (1536 spf)
Compression mode : Lossy
Stream size : 526 MiB (5%)
Title : INGLES [www.cinemaniahdd.com]
Language : English
Default : No
Forced : No

Text #1
ID : 4
Format : PGS
Muxing mode : zlib
Codec ID : S_HDMV/PGS
Codec ID/Info : Picture based subtitle format used on BDs/HD-DVDs
Duration : 1h 53mn
Bit rate : 5 442 bps
Count of elements : 2192
Stream size : 4.41 MiB (0%)
Title : [www.cinemaniahdd.com]
Language : English
Default : No
Forced : No

Text #2
ID : 5
Format : PGS
Muxing mode : zlib
Codec ID : S_HDMV/PGS
Codec ID/Info : Picture based subtitle format used on BDs/HD-DVDs
Duration : 1h 53mn
Bit rate : 5 923 bps
Count of elements : 2382
Stream size : 4.82 MiB (0%)
Title : [www.cinemaniahdd.com]
Language : English
Default : No
Forced : No

Text #3
ID : 6
Format : PGS
Muxing mode : zlib
Codec ID : S_HDMV/PGS
Codec ID/Info : Picture based subtitle format used on BDs/HD-DVDs
Duration : 1h 53mn
Bit rate : 4 940 bps
Count of elements : 2048
Stream size : 4.02 MiB (0%)
Title : [www.cinemaniahdd.com]
Language : Spanish
Default : No
Forced : No

Text #4
ID : 7
Format : PGS
Muxing mode : zlib
Codec ID : S_HDMV/PGS
Codec ID/Info : Picture based subtitle format used on BDs/HD-DVDs
Bit rate : 0 bps
Count of elements : 0
Stream size : 0.00 Byte (0%)
Title : [www.cinemaniahdd.com]
Language : English
Default : No
Forced : No

Text #5
ID : 8
Format : PGS
Muxing mode : zlib
Codec ID : S_HDMV/PGS
Codec ID/Info : Picture based subtitle format used on BDs/HD-DVDs
Bit rate : 0 bps
Count of elements : 0
Stream size : 0.00 Byte (0%)
Language : English
Default : No
Forced : No

Text #6
ID : 9
Format : PGS
Muxing mode : zlib
Codec ID : S_HDMV/PGS
Codec ID/Info : Picture based subtitle format used on BDs/HD-DVDs
Duration : 1h 19mn
Bit rate : 17 bps
Count of elements : 6
Stream size : 10.5 KiB (0%)
Language : Spanish
Default : No
Forced : No

Menu
00:00:00.000 : en:(01)00:00:00:000
00:10:38.137 : en:(02)00:10:38:137
00:17:33.135 : en:(03)00:17:33:135
00:26:02.602 : en:(04)00:26:02:602
00:32:28.196 : en:(05)00:32:28:196
00:37:28.412 : en:(06)00:37:28:412
00:42:14.198 : en:(07)00:42:14:198
00:52:10.377 : en:(08)00:52:10:377
01:01:24.972 : en:(09)01:01:24:972
01:08:45.538 : en:(10)01:08:45:538
01:15:39.159 : en:(11)01:15:39:159
01:21:19.249 : en:(12)01:21:19:249
01:30:35.346 : en:(13)01:30:35:346
01:40:58.177 : en:(14)01:40:58:177
01:45:13.724 : en:(15)01:45:13:724
01:53:06.196 : en:(16)01:53:06:196
01:54:50.425 : en:(17)01:54:50:425

Download Links

CONTRASEÑA PARA DESCOMPRIMIR

APORTES NUEVOS

cinemaniahdd.com

APORTES VIEJOS

CinemaniaHD.org

COMPRA O RENUEVA TU PREMIUM DE UPLOADED DESDE EL SIGUIENTE LINK:

http://ul.to/ref/9821430

SI GUSTAS PUEDES SEGUIRNOS EN LAS REDES SOCIALES

Facebook

Twitter

Post Relacionados