Actualmente tenemos 4567 para descargar peliculas gratis 1080p latino

Toy Story of Terror (2013) FULL 1080p Latino-Ingles

Titulo Original: Toy Story of TERROR

1080p | 1920×1080 | MKV | H.264 | Encoder by: ROLLERHD |  767 MB | 00:21:39 min | Audio: Español Latino (AC3 5.1 BD) - Ingles (AC3 5.1 BD)  | Subtitulo: Español Latino (.PGS) - Ingles (.PGS) | Animacion. Comedia | 2013 | 5% Registro de Recuperación (Reparar Rar dañados)

[spoiler]

General
Complete name : Toy Story of Terror (2013) FULL 1080p Latino-Ingles [WwW.CinemaniaHD.org].mkv
Format : Matroska
Format version : Version 2
File size : 767 MiB
Duration : 21mn 39s
Overall bit rate : 4 951 Kbps
Movie name : Toy Story of Terror (2013) FULL 1080p Latino-Ingles [WwW.CinemaniaHD.org]
Encoded date : UTC 2014-08-06 22:36:59
Writing application : mkvmerge v5.7.0 ('The Whirlwind') built on Jul 8 2012 20:08:51
Writing library : libebml v1.2.3 + libmatroska v1.3.0

Video
ID : 1
Format : AVC
Format/Info : Advanced Video Codec
Format profile : High@L4.1
Format settings, CABAC : Yes
Format settings, ReFrames : 2 frames
Format settings, GOP : M=3, N=24
Muxing mode : Header stripping
Codec ID : V_MPEG4/ISO/AVC
Duration : 21mn 39s
Bit rate : 3 957 Kbps
Width : 1 920 pixels
Height : 1 080 pixels
Display aspect ratio : 16:9
Frame rate mode : Constant
Frame rate : 23.976 fps
Color space : YUV
Chroma subsampling : 4:2:0
Bit depth : 8 bits
Scan type : Progressive
Bits/(Pixel*Frame) : 0.080
Stream size : 613 MiB (80%)
Title : [WwW.CinemaniaHD.org]
Writing library : x264 core
Default : Yes
Forced : No
Color primaries : BT.709
Transfer characteristics : BT.709
Matrix coefficients : BT.709

Audio #1
ID : 2
Format : AC-3
Format/Info : Audio Coding 3
Mode extension : CM (complete main)
Format settings, Endianness : Big
Muxing mode : Header stripping
Codec ID : A_AC3
Duration : 21mn 39s
Bit rate mode : Constant
Bit rate : 448 Kbps
Channel count : 6 channels
Channel positions : Front: L C R, Side: L R, LFE
Sampling rate : 48.0 KHz
Bit depth : 16 bits
Compression mode : Lossy
Stream size : 69.4 MiB (9%)
Title : Audio Latino [WwW.CinemaniaHD.org]
Language : Spanish
Default : Yes
Forced : No

Audio #2
ID : 3
Format : AC-3
Format/Info : Audio Coding 3
Mode extension : CM (complete main)
Format settings, Endianness : Big
Muxing mode : Header stripping
Codec ID : A_AC3
Duration : 21mn 39s
Bit rate mode : Constant
Bit rate : 448 Kbps
Channel count : 6 channels
Channel positions : Front: L C R, Side: L R, LFE
Sampling rate : 48.0 KHz
Bit depth : 16 bits
Compression mode : Lossy
Stream size : 69.4 MiB (9%)
Title : Audio Ingles [WwW.CinemaniaHD.org]
Language : English
Default : No
Forced : No

Text #1
ID : 4
Format : PGS
Muxing mode : zlib
Codec ID : S_HDMV/PGS
Codec ID/Info : The same subtitle format used on BDs/HD-DVDs
Title : Subtitulos Ingles [WwW.CinemaniaHD.org]
Language : English
Default : No
Forced : No

Text #2
ID : 5
Format : PGS
Muxing mode : zlib
Codec ID : S_HDMV/PGS
Codec ID/Info : The same subtitle format used on BDs/HD-DVDs
Title : Subtitulos Latino [WwW.CinemaniaHD.org]
Language : Spanish
Default : No
Forced : No

Text #3
ID : 6
Format : PGS
Muxing mode : zlib
Codec ID : S_HDMV/PGS
Codec ID/Info : The same subtitle format used on BDs/HD-DVDs
Title : Subtitulos Forzados [WwW.CinemaniaHD.org]
Language : Spanish
Default : No
Forced : No

Text #4
ID : 7
Format : UTF-8
Codec ID : S_TEXT/UTF8
Codec ID/Info : UTF-8 Plain Text
Title : [WwW.CinemaniaHD.org]
Default : Yes
Forced : No

[/spoiler]

Los entrañables personajes de 'Toy Story' vuelven a las andadas con este especial televisivo de Halloween, de unos veinte minutos de duración. Era un día como cualquier otro cuando Boonie y su madre deciden ir a visitar a la abuela, y Woody, Jessie y Buzz Lightyear van situados en el maletero del coche durante el viaje. Pero pasa algo con lo que nadie había contado: una de las ruedas del coche se pincha, y los protagonistas se ven obligados a pasar la noche en un motel de carretera, donde se verán amenazados por una presencia que no pueden identificar.

http://www.youtube.com/watch?v=feNxIm50JAA

Links Intercambiables

 

Publicos

 


 

COMPRA TU CUENTA PREMIUM PARA DESCARGA A MAXIMA VELOCIDAD, DESDE LOS SIGUIENTES ENLACES:

UPLOADED.TO >>>  Click Aqui

FREAKSHARE >>>  Click Aqui

 

Post Relacionados