Actualmente tenemos 3497 peliculas en nuestro sitio.

Trilogia El Señor de los Anillos EXTENDED (2000-2003) 1080p Dual Latino-Ingles


Descargar Ahora

Nota. Los audios son Editados para las version Extendida, ya que los bluray nunca se doblaron en Latino. Si encuentran errores es porque fueron editados. Los audios me los paso un Fans de la Pagefans, Gracias a el las publique en Dual con audios editado. Saludos

El Señor de los anillos: La comunidad del anillo V. EXTENDED (2001) BRRip 1080p Audio Dual Latino-Ingles

Ficha

Titulo Original: The Lord of the Rings: The Fellowship of the Ring

1080p | 1920x1080 | MKV | H.264 | Encoder by: CinemaniaHD | AC3 2.0 | 4.2 GB |  | 3:48:18 min | Audio: Español Latino - Ingles  | Subtitulos: Español Latino + Aparte SRT | Fantastico. Accion | 2001 | 5% Registro de Recuperacion (Reparar Rar dañados)

MediaInfo:

[spoiler]

General

Format : Matroska
Format version : Version 4 / Version 2
File size : 4.21 GiB
Duration : 3h 48mn
Overall bit rate : 2 642 Kbps
Movie name : El Señor de los anillos La comunidad del anillo (2001) [Extended 1080p Dual ] [wWw.CinemaniaHD.org]
Encoded date : UTC 2013-09-12 17:23:18
Writing application : mkvmerge v6.0.0 ('Coming Up For Air') built on Jan 20 2013 09:52:00
Writing library : libebml v1.3.0 + libmatroska v1.4.0

Video
ID : 1
Format : AVC
Format/Info : Advanced Video Codec
Format profile : [email protected]
Format settings, CABAC : Yes
Format settings, ReFrames : 4 frames
Codec ID : V_MPEG4/ISO/AVC
Duration : 3h 48mn
Bit rate : 2 000 Kbps
Width : 1 920 pixels
Height : 1 080 pixels
Display aspect ratio : 16:9
Frame rate mode : Constant
Frame rate : 23.976 fps
Color space : YUV
Chroma subsampling : 4:2:0
Bit depth : 8 bits
Scan type : Progressive
Bits/(Pixel*Frame) : 0.040
Stream size : 3.11 GiB (74%)
Title : wWw.CinemaniaHD.org
Writing library : x264 core 133 r2334 a3ac64b
Encoding settings : cabac=1 / ref=3 / deblock=1:0:0 / analyse=0x3:0x113 / me=hex / subme=7 / psy=1 / psy_rd=1.00:0.00 / mixed_ref=1 / me_range=16 / chroma_me=1 / trellis=1 / 8x8dct=1 / cqm=0 / deadzone=21,11 / fast_pskip=1 / chroma_qp_offset=-2 / threads=12 / lookahead_threads=2 / sliced_threads=0 / nr=0 / decimate=1 / interlaced=0 / bluray_compat=0 / constrained_intra=0 / bframes=3 / b_pyramid=2 / b_adapt=1 / b_bias=0 / direct=1 / weightb=1 / open_gop=0 / weightp=2 / keyint=240 / keyint_min=23 / scenecut=40 / intra_refresh=0 / rc_lookahead=40 / rc=2pass / mbtree=1 / bitrate=2000 / ratetol=1.0 / qcomp=0.60 / qpmin=0 / qpmax=69 / qpstep=4 / cplxblur=20.0 / qblur=0.5 / ip_ratio=1.40 / aq=1:1.00
Default : Yes
Forced : No

Audio #1
ID : 2
Format : AC-3
Format/Info : Audio Coding 3
Mode extension : CM (complete main)
Format settings, Endianness : Big
Codec ID : A_AC3
Duration : 3h 48mn
Bit rate mode : Constant
Bit rate : 320 Kbps
Channel count : 6 channels
Channel positions : Front: L C R, Side: L R, LFE
Sampling rate : 44.1 KHz
Bit depth : 16 bits
Compression mode : Lossy
Stream size : 523 MiB (12%)
Title : Español Latino [wWw.CinemaniaHD.org]
Default : Yes
Forced : No

Audio #2
ID : 3
Format : AC-3
Format/Info : Audio Coding 3
Mode extension : CM (complete main)
Format settings, Endianness : Big
Codec ID : A_AC3
Duration : 3h 48mn
Bit rate mode : Constant
Bit rate : 320 Kbps
Channel count : 6 channels
Channel positions : Front: L C R, Side: L R, LFE
Sampling rate : 44.1 KHz
Bit depth : 16 bits
Compression mode : Lossy
Stream size : 523 MiB (12%)
Title : Ingles [wWw.CinemaniaHD.org]
Default : No
Forced : No

Text #1
ID : 4
Format : UTF-8
Codec ID : S_TEXT/UTF8
Codec ID/Info : UTF-8 Plain Text
Title : Subtitulos Español [wWw.CinemaniaHD.org]
Default : No
Forced : No

Text #2
ID : 5
Format : UTF-8
Codec ID : S_TEXT/UTF8
Codec ID/Info : UTF-8 Plain Text
Title : wWw.CinemaniaHD.org
Default : Yes
Forced : No

 

[/spoiler]

Sinopsis

En la Tierra Media, el Señor Oscuro Saurón ordenó a los Elfos que forjaran los Grandes Anillos de Poder. Tres para los reyes Elfos, siete para los Señores Enanos, y nueve para los Hombres Mortales. Pero Saurón también forjó, en secreto, el Anillo Único, que tiene el poder de esclavizar toda la Tierra Media. Con la ayuda de sus amigos y de valientes aliados, el joven hobbit Frodo emprende un peligroso viaje con la misión de destruir el Anillo Único. Pero el malvado Sauron ordena la persecución del grupo, compuesto por Frodo y sus leales amigos hobbits, un mago, un hombre, un elfo y un enano. La misión es casi suicida pero necesaria, pues si Sauron con su ejército de orcos lograra recuperar el Anillo, sería el final de la Tierra Media.

Capturas

Trailer

http://www.youtube.com/watch?v=VIgkpEgCV-I

DESCARGAR

[ocultar]

Links Intercambiables

BillonUploads - 4Shared - PutLocker - Mega - Freakshare - Uploaded.to - Uptobox

Links

LINKS DIRECTOS MEGA Y PUTLOCKER >Usuaios V.I.P.

Links

PASSWORD

CinemaniaHD.org

[/ocultar]

*****************************************************************************

El Señor de los anillos: Las dos torres V. EXTENDED (2002) BRRip 1080p Audio Dual Latino-Ingles

Ficha

Titulo Original: The Lord of the Rings: The Two Towers

1080p | 1920x1080 | MKV | H.264 | Encoder by: CinemaniaHD | AC3 2.0 | 4.3 GB  | 3:55:31 min | Audio: Español Latino - Ingles  | Subtitulos: Español Latino + Aparte SRT | Fantastico. Accion | 2002 | 5% Registro de Recuperacion (Reparar Rar dañados)

MediaInfo:

[spoiler]

General

Format : Matroska
Format version : Version 4 / Version 2
File size : 4.34 GiB
Duration : 3h 55mn
Overall bit rate : 2 641 Kbps
Movie name : El Señor de los anillos Las dos torres (2002) [Extended 1080p Dual ] [wWw.CinemaniaHD.org]
Encoded date : UTC 2013-09-12 17:13:15
Writing application : mkvmerge v6.0.0 ('Coming Up For Air') built on Jan 20 2013 09:52:00
Writing library : libebml v1.3.0 + libmatroska v1.4.0

Video
ID : 1
Format : AVC
Format/Info : Advanced Video Codec
Format profile : [email protected]
Format settings, CABAC : Yes
Format settings, ReFrames : 4 frames
Codec ID : V_MPEG4/ISO/AVC
Duration : 3h 55mn
Bit rate : 1 999 Kbps
Width : 1 920 pixels
Height : 1 080 pixels
Display aspect ratio : 16:9
Frame rate mode : Constant
Frame rate : 23.976 fps
Color space : YUV
Chroma subsampling : 4:2:0
Bit depth : 8 bits
Scan type : Progressive
Bits/(Pixel*Frame) : 0.040
Stream size : 3.20 GiB (74%)
Title : wWw.CinemaniaHD.org
Writing library : x264 core 133 r2334 a3ac64b
Encoding settings : cabac=1 / ref=3 / deblock=1:0:0 / analyse=0x3:0x113 / me=hex / subme=7 / psy=1 / psy_rd=1.00:0.00 / mixed_ref=1 / me_range=16 / chroma_me=1 / trellis=1 / 8x8dct=1 / cqm=0 / deadzone=21,11 / fast_pskip=1 / chroma_qp_offset=-2 / threads=12 / lookahead_threads=2 / sliced_threads=0 / nr=0 / decimate=1 / interlaced=0 / bluray_compat=0 / constrained_intra=0 / bframes=3 / b_pyramid=2 / b_adapt=1 / b_bias=0 / direct=1 / weightb=1 / open_gop=0 / weightp=2 / keyint=240 / keyint_min=23 / scenecut=40 / intra_refresh=0 / rc_lookahead=40 / rc=2pass / mbtree=1 / bitrate=1999 / ratetol=1.0 / qcomp=0.60 / qpmin=0 / qpmax=69 / qpstep=4 / cplxblur=20.0 / qblur=0.5 / ip_ratio=1.40 / aq=1:1.00
Default : Yes
Forced : No

Audio #1
ID : 2
Format : AC-3
Format/Info : Audio Coding 3
Mode extension : CM (complete main)
Format settings, Endianness : Big
Codec ID : A_AC3
Duration : 3h 55mn
Bit rate mode : Constant
Bit rate : 320 Kbps
Channel count : 6 channels
Channel positions : Front: L C R, Side: L R, LFE
Sampling rate : 44.1 KHz
Bit depth : 16 bits
Compression mode : Lossy
Stream size : 539 MiB (12%)
Title : Español Latino [wWw.CinemaniaHD.org]
Default : Yes
Forced : No

Audio #2
ID : 3
Format : AC-3
Format/Info : Audio Coding 3
Mode extension : CM (complete main)
Format settings, Endianness : Big
Codec ID : A_AC3
Duration : 3h 55mn
Bit rate mode : Constant
Bit rate : 320 Kbps
Channel count : 6 channels
Channel positions : Front: L C R, Side: L R, LFE
Sampling rate : 44.1 KHz
Bit depth : 16 bits
Compression mode : Lossy
Stream size : 539 MiB (12%)
Title : Ingles [wWw.CinemaniaHD.org]
Default : No
Forced : No

Text #1
ID : 4
Format : UTF-8
Codec ID : S_TEXT/UTF8
Codec ID/Info : UTF-8 Plain Text
Title : Subtitulos Español [wWw.CinemaniaHD.org]
Default : No
Forced : No

Text #2
ID : 5
Format : UTF-8
Codec ID : S_TEXT/UTF8
Codec ID/Info : UTF-8 Plain Text
Title : wWw.CinemaniaHD.org
Default : Yes
Forced : No

 

[/spoiler]

Sinopsis

Tras la disolución de la Compañía del Anillo, Frodo y su fiel amigo Sam se dirigen hacia Mordor para destruir el Anillo Único y acabar con el poder de Sauron. Mientras, y tras la dura batalla contra los orcos donde cayó Boromir, el hombre Aragorn, el elfo Legolas y el enano Gimli intentan rescatar a los medianos Merry y Pipin, secuestrados por los orcos de Mordor. Por su parte, Saurón y el traidor Sarumán continúan con sus planes en Mordor, a la espera de la guerra contra las razas libres de la Tierra Media.

Capturas

Trailer

http://www.youtube.com/watch?v=cG-1Gtus7KQ

DESCARGAR

[ocultar]

Links Intercambiables

BillonUploads - 4Shared - PutLocker - Mega - Freakshare - Uploaded.to - Uptobox

Links

LINKS DIRECTOS MEGA Y PUTLOCKER >Usuaios V.I.P.

Links

PASSWORD

CinemaniaHD.org

[/ocultar]

*****************************************************************************

El Señor de los anillos: El retorno del rey V. EXTENDED (2003) BRRip 1080p Audio Dual Latino-Ingles

Ficha

Titulo Original: The Lord of the Rings: The Return of the King

1080p | 1920x1080 | MKV | H.264 | Encoder by: CinemaniaHD | AC3 2.0 | 5.2 GB  | 4:23:16 min | Audio: Español Latino - Ingles  | Subtitulos: Español Latino + Aparte SRT | Fantastico. Accion | 2003 | 5% Registro de Recuperacion (Reparar Rar dañados)

Subtitulos Español Latino

MediaInfo:

[spoiler]

General

Format : Matroska
Format version : Version 4 / Version 2
File size : 5.23 GiB
Duration : 4h 23mn
Overall bit rate : 2 842 Kbps
Movie name : El Señor de los anillos: El retorno del rey (2003) [1080p Dual] [wWw.CinemaniaHD.org]
Encoded date : UTC 2013-09-15 23:29:10
Writing application : mkvmerge v6.0.0 ('Coming Up For Air') built on Jan 20 2013 09:52:00
Writing library : libebml v1.3.0 + libmatroska v1.4.0

Video
ID : 1
Format : AVC
Format/Info : Advanced Video Codec
Format profile : [email protected]
Format settings, CABAC : Yes
Format settings, ReFrames : 4 frames
Codec ID : V_MPEG4/ISO/AVC
Duration : 4h 23mn
Bit rate : 2 200 Kbps
Width : 1 920 pixels
Height : 1 080 pixels
Display aspect ratio : 16:9
Frame rate mode : Constant
Frame rate : 23.976 fps
Color space : YUV
Chroma subsampling : 4:2:0
Bit depth : 8 bits
Scan type : Progressive
Bits/(Pixel*Frame) : 0.044
Stream size : 3.95 GiB (75%)
Title : wWw.CinemaniaHD.org
Writing library : x264 core 133 r2334 a3ac64b
Encoding settings : cabac=1 / ref=3 / deblock=1:0:0 / analyse=0x3:0x113 / me=hex / subme=7 / psy=1 / psy_rd=1.00:0.00 / mixed_ref=1 / me_range=16 / chroma_me=1 / trellis=1 / 8x8dct=1 / cqm=0 / deadzone=21,11 / fast_pskip=1 / chroma_qp_offset=-2 / threads=12 / lookahead_threads=2 / sliced_threads=0 / nr=0 / decimate=1 / interlaced=0 / bluray_compat=0 / constrained_intra=0 / bframes=3 / b_pyramid=2 / b_adapt=1 / b_bias=0 / direct=1 / weightb=1 / open_gop=0 / weightp=2 / keyint=240 / keyint_min=23 / scenecut=40 / intra_refresh=0 / rc_lookahead=40 / rc=2pass / mbtree=1 / bitrate=2200 / ratetol=1.0 / qcomp=0.60 / qpmin=0 / qpmax=69 / qpstep=4 / cplxblur=20.0 / qblur=0.5 / ip_ratio=1.40 / aq=1:1.00
Default : Yes
Forced : No

Audio #1
ID : 2
Format : AC-3
Format/Info : Audio Coding 3
Mode extension : CM (complete main)
Format settings, Endianness : Big
Codec ID : A_AC3
Duration : 4h 23mn
Bit rate mode : Constant
Bit rate : 320 Kbps
Channel count : 6 channels
Channel positions : Front: L C R, Side: L R, LFE
Sampling rate : 44.1 KHz
Bit depth : 16 bits
Compression mode : Lossy
Stream size : 603 MiB (11%)
Title : Español Latino [wWw.CinemaniaHD.org]
Default : Yes
Forced : No

Audio #2
ID : 3
Format : AC-3
Format/Info : Audio Coding 3
Mode extension : CM (complete main)
Format settings, Endianness : Big
Codec ID : A_AC3
Duration : 4h 23mn
Bit rate mode : Constant
Bit rate : 320 Kbps
Channel count : 6 channels
Channel positions : Front: L C R, Side: L R, LFE
Sampling rate : 44.1 KHz
Bit depth : 16 bits
Compression mode : Lossy
Stream size : 603 MiB (11%)
Title : Ingles [wWw.CinemaniaHD.org]
Default : No
Forced : No

Text #1
ID : 4
Format : UTF-8
Codec ID : S_TEXT/UTF8
Codec ID/Info : UTF-8 Plain Text
Title : Subtitulos Español [wWw.CinemaniaHD.org]
Default : No
Forced : No

Text #2
ID : 5
Format : UTF-8
Codec ID : S_TEXT/UTF8
Codec ID/Info : UTF-8 Plain Text
Title : wWw.CinemaniaHD.org
Default : Yes
Forced : No

 

[/spoiler]

Sinopsis

Las fuerzas de Saruman han sido destruidas, y su fortaleza sitiada. Ha llegado el momento de decidir el destino de la Tierra Media, y, por primera vez, parece que hay una pequeña esperanza. El interés del señor oscuro Sauron se centra ahora en Gondor, el último reducto de los hombres, cuyo trono será reclamado por Aragorn. Sauron se dispone a lanzar un ataque decisivo contra Gondor. Mientras tanto, Frodo y Sam continuan su camino hacia Mordor, con la esperanza de llegar al Monte del Destino.

Capturas

Trailer

http://www.youtube.com/watch?v=8wbhOW98LY4

DESCARGAR

[ocultar]

Links Intercambiables

BillonUploads - 4Shared - PutLocker - Mega - Freakshare - Uploaded.to - Uptobox

Links

LINKS DIRECTOS MEGA Y PUTLOCKER >Usuaios V.I.P.

Links

PASSWORD

CinemaniaHD.org

[/ocultar]

Terminos de Busquedas:

  • hobbies el señor de los anillos versión extended

Post Relacionados