Actualmente tenemos 4567 para descargar peliculas gratis 1080p latino

Un Ángel Enamorado (1998) 1080p BluRay x265 HEVC DTS Dual Latino

un-angel-enamorado-x265
Cuando sentimos una especie de presencia invisible, es que un ángel de la guarda está entre nosotros. Éste es el caso de Maggie, una cardióloga por la que empieza a interesarse Seth, un ángel llegado del cielo. El único obstáculo en su relación es la inmortalidad de Seth.


Titulo Original City of Angels
Año 1998-04-10
Duracion 114
Guion Wim Wenders (screenplay), Peter Handke (screenplay), Richard Reitinger (screenplay), Dana Stevens (screenplay)
Director Brad Silberling
Musica
Photografia
Reparto Nicolas Cage, Meg Ryan, Andre Braugher, Dennis Franz
Productora Atlas Entertainment, Regency Enterprises, Monarchy Enterprises B.V., Warner Bros., Taurus Film,
Genero Drama, Fantasía, Romance,
Titulo original City Of Angels
Titulo Latino Un Ángel Enamorado
Otros Titulos
Audio Español Latino AC3 2.0 - Inglés DTS 5.1
Calidad: FULL HD 1080p Resolucion: 1920x1080 Formato: MKV
Codec: H.265 Encoder: Sebastian1813 Peso: 4.05 GB
Subtitulos: Subtítulos Español Latino [PGS] Duracion: 1h 54min Capitulos:
  • No hay video embed hola

Un Ángel Enamorado (1998) 1080p BluRay x265 HEVC DTS Dual Latino.mkv
Format : Matroska
Format version : Version 4 / Version 2
File size : 4.05 GiB
Duration : 1h 54mn
Overall bit rate : 5 072 Kbps
Encoded date : UTC 2016-12-03 23:53:15
Writing application : mkvmerge v8.6.1 ('Flying') 64bit
Writing library : libebml v1.3.3 + libmatroska v1.4.4
DURATION : 01:54:13.536000000
NUMBER_OF_FRAMES : 214173
NUMBER_OF_BYTES : 164484864
_STATISTICS_WRITING_APP : mkvmerge v8.6.1 ('Flying') 64bit
_STATISTICS_WRITING_DATE_UT : 2016-12-03 23:53:15
_STATISTICS_TAGS : BPS DURATION NUMBER_OF_FRAMES NUMBER_OF_BYTES

Video
ID : 1
Format : HEVC
Format/Info : High Efficiency Video Coding
Format profile : Main@L4@Main
Codec ID : V_MPEGH/ISO/HEVC
Duration : 1h 54mn
Bit rate : 3 270 Kbps
Width : 1 920 pixels
Height : 1 080 pixels
Display aspect ratio : 16:9
Frame rate mode : Constant
Frame rate : 23.976 fps
Color space : YUV
Chroma subsampling : 4:2:0
Bit depth : 8 bits
Bits/(Pixel*Frame) : 0.066
Stream size : 2.61 GiB (64%)
Writing library : x265 1.9:[Windows][GCC 4.9.0][64 bit] 8bit
Encoding settings : wpp / ctu=64 / min-cu-size=8 / max-tu-size=32 / tu-intra-depth=1 / tu-inter-depth=1 / me=3 / subme=3 / merange=57 / rect / no-amp / max-merge=3 / temporal-mvp / no-early-skip / rdpenalty=0 / no-tskip / no-tskip-fast / strong-intra-smoothing / no-lossless / no-cu-lossless / no-constrained-intra / no-fast-intra / open-gop / no-temporal-layers / interlace=0 / keyint=240 / min-keyint=24 / scenecut=40 / rc-lookahead=25 / lookahead-slices=4 / bframes=4 / bframe-bias=0 / b-adapt=2 / ref=4 / limit-refs=3 / limit-modes / weightp / no-weightb / aq-mode=1 / qg-size=32 / aq-strength=1.00 / cbqpoffs=0 / crqpoffs=0 / rd=4 / psy-rd=2.00 / rdoq-level=2 / psy-rdoq=1.00 / signhide / deblock / sao / no-sao-non-deblock / b-pyramid / cutree / no-intra-refresh / rc=crf / crf=20.0 / qcomp=0.60 / qpmin=0 / qpmax=51 / qpstep=4 / ipratio=1.40 / pbratio=1.30
Default : Yes
Forced : No
Color range : Limited
Color primaries : BT.709
Transfer characteristics : BT.709
Matrix coefficients : BT.709
DURATION : 01:54:13.514000000
NUMBER_OF_FRAMES : 164320
NUMBER_OF_BYTES : 2870217774
_STATISTICS_WRITING_APP : mkvmerge v8.6.1 ('Flying') 64bit
_STATISTICS_WRITING_DATE_UT : 2016-12-03 23:53:15
_STATISTICS_TAGS : BPS DURATION NUMBER_OF_FRAMES NUMBER_OF_BYTES

Audio #1
ID : 2
Format : AC-3
Format/Info : Audio Coding 3
Format profile : Dolby Digital
Mode extension : CM (complete main)
Format settings, Endianness : Big
Codec ID : A_AC3
Duration : 1h 54mn
Bit rate mode : Constant
Bit rate : 192 Kbps
Channel(s) : 2 channels
Channel positions : Front: L R
Sampling rate : 48.0 KHz
Compression mode : Lossy
Delay relative to video : -83ms
Stream size : 157 MiB (4%)
Title : Español Latino AC3 2.0 [192 Kbps]
Language : Spanish
Default : Yes
Forced : No

Audio #2
ID : 3
Format : DTS
Format/Info : Digital Theater Systems
Mode : 16
Format settings, Endianness : Big
Codec ID : A_DTS
Duration : 1h 54mn
Bit rate mode : Constant
Bit rate : 1 509 Kbps
Channel(s) : 6 channels
Channel positions : Front: L C R, Side: L R, LFE
Sampling rate : 48.0 KHz
Bit depth : 16 bits
Compression mode : Lossy
Delay relative to video : -83ms
Stream size : 1.20 GiB (30%)
Title : Inglés DTS 5.1 [1509 Kbps]
Language : English
Default : No
Forced : No

Text
ID : 4
Format : PGS
Codec ID : S_HDMV/PGS
Codec ID/Info : Picture based subtitle format used on BDs/HD-DVDs
Title : Subtítulos Español Latino [PGS]
Language : Spanish
Default : No
Forced : No

Menu
00:00:00.000 : :Chapter 1
00:10:13.654 : :Chapter 2
00:20:24.640 : :Chapter 3
00:31:05.780 : :Chapter 4
00:41:19.018 : :Chapter 5
00:51:08.357 : :Chapter 6
01:01:21.135 : :Chapter 7
01:11:53.517 : :Chapter 8
01:23:58.950 : :Chapter 9
01:33:18.801 : :Chapter 10
01:41:57.528 : :Chapter 11
01:47:34.531 : :Chapter 12

Download Links

CONTRASEÑA PARA DESCOMPRIMIR

APORTES NUEVOS

cinemaniahdd.com

APORTES VIEJOS

CinemaniaHD.org

COMPRA O RENUEVA TU PREMIUM DE UPLOADED DESDE EL SIGUIENTE LINK:

http://ul.to/ref/9821430

SI GUSTAS PUEDES SEGUIRNOS EN LAS REDES SOCIALES

Facebook

Twitter

Post Relacionados